<?xml version="1.0" standalone="no"?>
<!DOCTYPE svg PUBLIC "-//W3C//DTD SVG 1.1//EN" "http://www.w3.org/Graphics/SVG/1.1/DTD/svg11.dtd" >
<svg xmlns="http://www.w3.org/2000/svg" xmlns:xlink="http://www.w3.org/1999/xlink" version="1.1">
<metadata></metadata>
<defs>
<font id="proxima_novaextrabold" horiz-adv-x="1427" >
<font-face units-per-em="2048" ascent="1618" descent="-430" />
<missing-glyph horiz-adv-x="524" />
<glyph unicode="&#xfb01;" horiz-adv-x="1259" d="M18 715v274h164v49q0 156 99.5 252t255.5 96q126 0 208 -45l-59 -219q-32 25 -84 25q-46 0 -75 -29.5t-29 -79.5v-49h200v-274h-200v-715h-316v715h-164zM807 1294q0 75 52.5 128t127.5 53t127.5 -53t52.5 -128t-52.5 -127.5t-127.5 -52.5t-127.5 52.5t-52.5 127.5z M829 0v989h316v-989h-316z" />
<glyph unicode="&#xfb02;" horiz-adv-x="1259" d="M18 715v274h164v49q0 156 99.5 252t255.5 96q126 0 208 -45l-59 -219q-32 25 -84 25q-46 0 -75 -29.5t-29 -79.5v-49h200v-274h-200v-715h-316v715h-164zM829 0v1366h316v-1366h-316z" />
<glyph unicode="&#xfb03;" horiz-adv-x="1974" d="M18 715v274h164v49q0 156 99.5 252t255.5 96q126 0 208 -45l-57 -215q-38 21 -82 21q-50 0 -79 -30.5t-29 -86.5v-41h200v-274h-200v-715h-316v715h-164zM733 715v274h164v49q0 157 99.5 252.5t254.5 95.5q127 0 209 -45l-59 -219q-32 25 -84 25q-47 0 -76 -29.5 t-29 -79.5v-49h201v-274h-201v-715h-315v715h-164zM1522 1294q0 75 52.5 128t127.5 53t127.5 -53t52.5 -128t-52.5 -127.5t-127.5 -52.5t-127.5 52.5t-52.5 127.5zM1544 0v989h316v-989h-316z" />
<glyph unicode="&#xfb04;" horiz-adv-x="1974" d="M18 715v274h164v49q0 156 99.5 252t255.5 96q126 0 208 -45l-57 -215q-38 21 -82 21q-50 0 -79 -30.5t-29 -86.5v-41h200v-274h-200v-715h-316v715h-164zM733 715v274h164v49q0 157 99.5 252.5t254.5 95.5q127 0 209 -45l-59 -219q-32 25 -84 25q-47 0 -76 -29.5 t-29 -79.5v-49h201v-274h-201v-715h-315v715h-164zM1544 0v1366h316v-1366h-316z" />
<glyph horiz-adv-x="0" />
<glyph horiz-adv-x="682" />
<glyph horiz-adv-x="0" />
<glyph horiz-adv-x="0" />
<glyph unicode="&#xd;" horiz-adv-x="0" />
<glyph unicode=" "  horiz-adv-x="524" />
<glyph unicode="&#x09;" horiz-adv-x="524" />
<glyph unicode="&#xa0;" horiz-adv-x="524" />
<glyph unicode="!" horiz-adv-x="548" d="M84 168q0 78 56 135t134 57t135.5 -57t57.5 -135q0 -77 -57.5 -134t-135.5 -57t-134 57t-56 134zM86 1366h377l-47 -889h-281z" />
<glyph unicode="&#x22;" horiz-adv-x="897" d="M80 1223q0 67 48 115t116 48t117 -48t49 -115q0 -19 -25 -142t-49 -237l-25 -113h-133q-98 449 -98 492zM489 1223q0 68 47.5 115.5t116.5 47.5q68 0 116 -48t48 -115q0 -19 -24.5 -142t-48.5 -237l-25 -113h-131q-99 449 -99 492z" />
<glyph unicode="#" horiz-adv-x="1294" d="M29 336l63 194h191l98 304h-188l61 192h195l112 340h225l-112 -340h176l113 340h227l-115 -340h191l-60 -192h-194l-103 -304h197l-62 -194h-200l-111 -336h-227l112 336h-178l-110 -336h-226l111 336h-186zM508 530h174l102 304h-176z" />
<glyph unicode="$" horiz-adv-x="1280" d="M49 193l187 264q82 -80 194.5 -130.5t243.5 -50.5q88 0 141 33t53 84q0 54 -56.5 83.5t-178.5 55.5q-190 38 -275 72q-225 88 -258 280q-6 35 -6 74q0 161 119 279.5t328 142.5v193h227v-195q246 -30 424 -182l-191 -252q-83 68 -187.5 104.5t-199.5 36.5q-83 0 -122 -29 t-39 -77q0 -50 54 -75.5t181 -49.5q50 -11 78 -17t79.5 -19.5t82.5 -25t75.5 -32t72 -41t59.5 -51t49 -64t29 -78t12 -94.5q0 -187 -118.5 -305.5t-338.5 -144.5v-187h-227v187q-302 28 -492 211z" />
<glyph unicode="%" horiz-adv-x="1579" d="M47 1042q0 148 98 246t256 98q161 0 261 -98t100 -246q0 -145 -100 -242.5t-261 -97.5q-158 0 -256 97.5t-98 242.5zM264 1042q0 -71 38 -111t99 -40q62 0 102 40t40 111q0 74 -40 115t-102 41q-61 0 -99 -41t-38 -115zM266 0l873 1366h178l-875 -1366h-176zM819 315 q0 147 98.5 245.5t256.5 98.5q160 0 259 -98t99 -246q0 -145 -99 -242.5t-259 -97.5q-158 0 -256.5 97.5t-98.5 242.5zM1036 315q0 -73 38 -112t100 -39t101.5 39t39.5 112q0 74 -39.5 115t-101.5 41t-100 -41t-38 -115z" />
<glyph unicode="&#x26;" horiz-adv-x="1329" d="M37 379q0 74 22.5 135.5t65.5 108t91 80t112 65.5q-84 158 -84 285q0 141 116 237t297 96q102 0 188.5 -35t140.5 -104t54 -160q0 -60 -19.5 -111.5t-47.5 -87t-75.5 -69.5t-87.5 -55t-99 -47q67 -90 96 -125q43 -55 94 -115q73 109 115 240l246 -117q-85 -181 -193 -317 q147 -161 264 -283h-395q-18 18 -80 84q-164 -109 -358 -109q-98 0 -181.5 25.5t-146.5 74.5t-99 127t-36 177zM367 410q0 -84 52.5 -137.5t125.5 -53.5q76 0 149 45q-52 58 -129 150q-39 49 -121 159q-77 -67 -77 -163zM553 1047q0 -64 49 -160q83 40 126.5 82t43.5 100 q0 42 -28.5 68t-71.5 26q-51 0 -85 -32.5t-34 -83.5z" />
<glyph unicode="'" horiz-adv-x="489" d="M80 1223q0 67 48 115t116 48t117 -48t49 -115q0 -19 -25 -142t-49 -237l-25 -113h-133q-98 449 -98 492z" />
<glyph unicode="(" horiz-adv-x="659" d="M80 498q0 249 94 499t250 406l199 -152q-108 -185 -156.5 -361t-48.5 -392t48.5 -392.5t156.5 -359.5l-199 -154q-156 156 -250 406t-94 500z" />
<glyph unicode=")" horiz-adv-x="659" d="M37 -254q107 183 155 360t48 392q0 216 -48 392t-155 361l199 152q156 -156 250 -406t94 -499q0 -250 -94 -500t-250 -406z" />
<glyph unicode="*" horiz-adv-x="731" d="M43 956l195 101l-195 100l74 127l184 -117l-10 219h149l-12 -219l184 117l76 -127l-194 -100l194 -101l-76 -129l-184 119l12 -219h-149l10 219l-184 -119z" />
<glyph unicode="+" horiz-adv-x="1038" d="M59 596v188h357v392h207v-392h356v-188h-356v-406h-207v406h-357z" />
<glyph unicode="," horiz-adv-x="548" d="M82 172q0 78 55.5 133t132.5 55q87 0 148 -63.5t61 -171.5q0 -124 -62 -231.5t-171 -184.5l-131 107q53 27 105.5 81.5t68.5 108.5q-20 -8 -47 -8q-67 0 -113.5 50t-46.5 124z" />
<glyph unicode="-" horiz-adv-x="614" d="M61 365v264h492v-264h-492z" />
<glyph unicode="." horiz-adv-x="552" d="M82 168q0 78 57 135t135 57t135.5 -57t57.5 -135t-57.5 -135.5t-135.5 -57.5t-135 57.5t-57 135.5z" />
<glyph unicode="/" horiz-adv-x="708" d="M0 -41l485 1448h224l-486 -1448h-223z" />
<glyph unicode="0" horiz-adv-x="1277" d="M53 682q0 110 22 211.5t69.5 191.5t115.5 157t165.5 105.5t213.5 38.5t213.5 -38.5t165.5 -105.5t115.5 -157t69.5 -191.5t22 -211.5t-22 -212t-69.5 -192.5t-115.5 -157.5t-165.5 -106t-213.5 -39t-213.5 39t-165.5 106t-115.5 157.5t-69.5 192.5t-22 212zM410 682 q0 -395 229 -395t229 395q0 393 -229 393t-229 -393z" />
<glyph unicode="1" horiz-adv-x="915" d="M10 895l477 471h306v-1366h-353v915l-229 -231z" />
<glyph unicode="2" horiz-adv-x="1243" d="M45 1159q103 114 251.5 170.5t301.5 56.5q244 0 398.5 -125t154.5 -329q0 -156 -120 -301t-396 -324h526v-307h-1071v274q161 116 259 188.5t185 141.5t130.5 109.5t76.5 82t42.5 71.5t9.5 65q0 68 -55.5 105.5t-139.5 37.5q-199 0 -358 -149z" />
<glyph unicode="3" horiz-adv-x="1232" d="M33 190l178 232q71 -69 175 -108.5t198 -39.5q110 0 169.5 39.5t59.5 102.5t-55 94t-189 31q-144 0 -184 -4v303q27 -2 184 -2q107 0 164.5 29.5t57.5 86.5q0 63 -64 97t-166 34q-92 0 -181.5 -35.5t-162.5 -99.5l-166 215q197 221 547 221q257 0 400 -101.5t143 -272.5 q0 -116 -86.5 -201t-212.5 -106q56 -5 111.5 -29t103 -63.5t77 -100t29.5 -131.5q0 -181 -155.5 -293.5t-409.5 -112.5q-189 0 -335 59t-230 156z" />
<glyph unicode="4" horiz-adv-x="1261" d="M45 250v274l518 842h490v-807h166v-309h-166v-250h-355v250h-653zM387 559h311v500z" />
<glyph unicode="5" horiz-adv-x="1263" d="M82 174l188 236q70 -65 164.5 -100.5t194.5 -35.5q107 0 165 48.5t58 119.5q0 75 -55 120.5t-158 45.5q-159 0 -270 -102l-244 59v801h991v-297h-651v-281q131 111 305 111q118 0 217 -52.5t161 -154.5t62 -235q0 -221 -156 -351.5t-421 -130.5q-349 0 -551 199z" />
<glyph unicode="6" horiz-adv-x="1263" d="M53 680q0 326 182.5 516t493.5 190q120 0 229 -35t187 -96l-154 -258q-59 47 -119 68.5t-143 21.5q-136 0 -227.5 -93t-91.5 -236v-17q53 70 143.5 114t191.5 44q94 0 178.5 -29t150.5 -83.5t105.5 -140t39.5 -191.5q0 -210 -153.5 -345t-391.5 -135q-127 0 -230.5 36 t-175 99.5t-120.5 152.5t-72 193.5t-23 223.5zM410 518q4 -45 19 -86t43 -78t75.5 -58.5t109.5 -21.5q94 0 149.5 50t55.5 116q0 85 -64.5 127.5t-158.5 42.5q-134 0 -229 -92z" />
<glyph unicode="7" horiz-adv-x="1146" d="M43 1059v307h1071v-244l-481 -1122h-387l463 1059h-666z" />
<glyph unicode="8" horiz-adv-x="1265" d="M53 360q0 113 77 205.5t200 139.5q-254 96 -254 317q0 95 48.5 167.5t130.5 114t177.5 62t200.5 20.5t200.5 -20.5t177 -62t130.5 -114t49 -167.5q0 -220 -256 -317q123 -47 199.5 -139t76.5 -206q0 -96 -48 -171.5t-130 -121t-183.5 -69t-215.5 -23.5t-215.5 23 t-184.5 68.5t-131.5 121t-48.5 172.5zM412 399q0 -60 61 -95.5t160 -35.5q97 0 159 36t62 95q0 42 -38.5 76.5t-86.5 52.5t-96 25q-80 -11 -150.5 -52t-70.5 -102zM434 971q0 -54 61.5 -90.5t137.5 -49.5q75 13 135.5 49t60.5 91t-54 89t-142 34q-91 0 -145 -33.5t-54 -89.5 z" />
<glyph unicode="9" horiz-adv-x="1263" d="M43 909q0 210 153.5 345t391.5 135q158 0 278.5 -54.5t194 -151.5t110.5 -222.5t37 -276.5q0 -325 -182.5 -516t-493.5 -191q-119 0 -227.5 35t-185.5 97l151 258q59 -47 120 -69t142 -22q140 0 230 94.5t90 235.5v17q-53 -69 -143.5 -113.5t-190.5 -44.5 q-94 0 -178.5 29t-151 83.5t-106 140t-39.5 191.5zM401 926q0 -86 64.5 -129t157.5 -43q137 0 229 92q-7 98 -68.5 171t-179.5 73q-93 0 -148 -49.5t-55 -114.5z" />
<glyph unicode=":" horiz-adv-x="530" d="M82 168q0 78 57 135t135 57t135.5 -57t57.5 -135t-57.5 -135.5t-135.5 -57.5t-135 57.5t-57 135.5zM82 811q0 78 57 135.5t135 57.5t135.5 -57.5t57.5 -135.5t-57.5 -135.5t-135.5 -57.5t-135 57.5t-57 135.5z" />
<glyph unicode=";" horiz-adv-x="548" d="M82 174q0 78 55.5 133t132.5 55q87 0 148 -63.5t61 -173.5q0 -122 -62 -230t-171 -184l-131 107q52 24 104.5 81.5t69.5 112.5q-20 -8 -47 -8q-67 0 -113.5 47.5t-46.5 122.5zM82 813q0 78 57 134.5t135 56.5t135.5 -56.5t57.5 -134.5t-57.5 -136.5t-135.5 -58.5 t-135 58.5t-57 136.5z" />
<glyph unicode="&#x3c;" horiz-adv-x="1038" d="M59 571v228l920 389v-225l-707 -279l707 -276v-224z" />
<glyph unicode="=" horiz-adv-x="1038" d="M59 399v189h920v-189h-920zM59 780v189h920v-189h-920z" />
<glyph unicode="&#x3e;" horiz-adv-x="1038" d="M59 184v224l707 276l-707 279v225l920 -389v-228z" />
<glyph unicode="?" horiz-adv-x="927" d="M10 1194q83 93 202.5 142.5t248.5 49.5q201 0 319.5 -89t118.5 -238q0 -49 -12.5 -92.5t-28.5 -72t-47 -60.5t-50 -47.5t-56 -43.5q-44 -31 -64 -47.5t-39.5 -45.5t-19.5 -60q0 -52 30 -82l-272 -70q-64 77 -64 189q0 50 15 91.5t45.5 74.5t53.5 52t61 44q33 23 48 34.5 t29.5 31.5t14.5 40q0 80 -121 80q-58 0 -115 -28t-100 -78zM272 168q0 78 57.5 135t135.5 57t135 -57t57 -135t-57 -135.5t-135 -57.5t-135.5 57.5t-57.5 135.5z" />
<glyph unicode="@" horiz-adv-x="1603" d="M72 500q0 128 43 250.5t120.5 221.5t178.5 175t223 118t248 42q144 0 266.5 -49.5t204.5 -133.5t128 -196.5t46 -237.5q0 -126 -41.5 -228.5t-106.5 -163t-138 -92.5t-144 -32q-90 0 -141 40.5t-66 102.5l-2 15q-53 -75 -128.5 -116.5t-152.5 -41.5q-147 0 -233 98.5 t-86 251.5q0 130 64 244.5t169 182t221 67.5q87 0 152 -34t100 -91l21 98h278l-100 -471q-4 -20 -4 -53q0 -84 65 -84q68 0 123.5 81t55.5 226q0 241 -151 386t-408 145q-141 0 -274 -58.5t-230.5 -155.5t-156 -229t-58.5 -272q0 -242 162.5 -403.5t410.5 -161.5 q195 0 369 110l47 -65q-200 -129 -426 -129q-183 0 -332 85t-233 232t-84 326zM578 549q0 -71 40 -113.5t109 -42.5q106 0 188 109l46 217q-18 33 -54.5 57.5t-89.5 24.5q-103 0 -171 -76.5t-68 -175.5z" />
<glyph unicode="A" d="M-23 0l515 1366h442l516 -1366h-383l-70 207h-567l-70 -207h-383zM522 504h383l-192 555z" />
<glyph unicode="B" horiz-adv-x="1392" d="M123 0v1366h774q97 0 175.5 -30t126 -80t72.5 -111t25 -127q0 -123 -66 -206.5t-167 -106.5q110 -17 185 -112t75 -222q0 -158 -104.5 -264.5t-296.5 -106.5h-799zM475 293h354q62 0 99 34.5t37 90.5q0 55 -37 92t-99 37h-354v-254zM475 838h342q54 0 87.5 33.5 t33.5 84.5t-33.5 84t-87.5 33h-342v-235z" />
<glyph unicode="C" horiz-adv-x="1417" d="M53 682q0 155 56.5 288t154 224.5t232 143t286.5 51.5q98 0 184.5 -21.5t150 -55.5t117.5 -83t90 -99t65 -108l-304 -143q-35 85 -118 141.5t-185 56.5q-159 0 -264.5 -113.5t-105.5 -281.5t105.5 -281.5t264.5 -113.5q102 0 185 56.5t118 141.5l304 -143 q-36 -72 -85.5 -132.5t-122 -116t-175 -87t-224.5 -31.5q-152 0 -286.5 52t-232 143.5t-154 224.5t-56.5 287z" />
<glyph unicode="D" horiz-adv-x="1488" d="M123 0v1366h573q215 0 382 -81t262.5 -237t95.5 -364t-95.5 -364.5t-262 -238t-380.5 -81.5h-575zM475 307h221q174 0 276.5 109t102.5 268q0 165 -98 270t-279 105h-223v-752z" />
<glyph unicode="E" horiz-adv-x="1206" d="M123 0v1366h1001v-297h-649v-227h635v-299h-635v-246h649v-297h-1001z" />
<glyph unicode="F" horiz-adv-x="1191" d="M123 0v1366h1001v-297h-649v-227h635v-299h-635v-543h-352z" />
<glyph unicode="G" horiz-adv-x="1480" d="M53 682q0 159 58.5 293t158.5 224t235 140t288 50q209 0 354.5 -88t228.5 -230l-295 -156q-44 71 -119.5 116.5t-168.5 45.5q-166 0 -273.5 -113t-107.5 -282t107.5 -282t273.5 -113q76 0 145 23t113 59v114h-314v293h660v-534q-242 -267 -604 -267q-153 0 -288 50 t-235 140t-158.5 224t-58.5 293z" />
<glyph unicode="H" horiz-adv-x="1517" d="M123 0v1366h352v-510h567v510h353v-1366h-353v549h-567v-549h-352z" />
<glyph unicode="I" horiz-adv-x="598" d="M123 0v1366h352v-1366h-352z" />
<glyph unicode="J" horiz-adv-x="1007" d="M6 98l148 269q96 -80 196 -80q84 0 133 50t49 136v893h353v-897q0 -246 -135.5 -370t-368.5 -124q-236 0 -375 123z" />
<glyph unicode="K" horiz-adv-x="1339" d="M123 0v1366h352v-561l420 561h434l-530 -639l559 -727h-432l-359 514l-92 -115v-399h-352z" />
<glyph unicode="L" horiz-adv-x="1083" d="M123 0v1366h352v-1059h549v-307h-901z" />
<glyph unicode="M" horiz-adv-x="1796" d="M123 0v1366h489l285 -774l287 774h489v-1366h-352v922l-346 -922h-156l-344 922v-922h-352z" />
<glyph unicode="N" horiz-adv-x="1515" d="M123 0v1366h362l553 -786v786h355v-1366h-340l-578 825v-825h-352z" />
<glyph unicode="O" horiz-adv-x="1568" d="M53 682q0 153 55.5 285.5t152.5 224.5t232.5 144.5t290.5 52.5t290 -52.5t231.5 -144.5t152 -224.5t55.5 -285.5t-55.5 -285.5t-152 -224.5t-231.5 -144.5t-290 -52.5t-290.5 52.5t-232.5 144.5t-152.5 224.5t-55.5 285.5zM412 682q0 -169 102.5 -282t269.5 -113 q166 0 268.5 113t102.5 282q0 170 -102.5 282.5t-268.5 112.5q-167 0 -269.5 -112.5t-102.5 -282.5z" />
<glyph unicode="P" horiz-adv-x="1316" d="M123 0v1366h684q112 0 203 -36t150 -98.5t90.5 -144.5t31.5 -176q0 -93 -31.5 -174t-90.5 -142t-150 -96.5t-203 -35.5h-332v-463h-352zM475 762h285q72 0 118 41.5t46 109.5q0 70 -46.5 113t-117.5 43h-285v-307z" />
<glyph unicode="Q" horiz-adv-x="1568" d="M53 682q0 153 55.5 285.5t152.5 224.5t232.5 144.5t290.5 52.5t290 -52.5t231.5 -144.5t152 -224.5t55.5 -285.5q0 -279 -172 -473l86 -105l-245 -196l-101 123q-136 -56 -297 -56q-155 0 -290.5 52.5t-232.5 144.5t-152.5 224.5t-55.5 285.5zM412 682q0 -169 102.5 -282 t269.5 -113q47 0 80 8l-137 166l244 196l141 -170q43 85 43 195q0 170 -102.5 282.5t-268.5 112.5q-167 0 -269.5 -112.5t-102.5 -282.5z" />
<glyph unicode="R" horiz-adv-x="1353" d="M123 0v1366h684q147 0 256.5 -61t164 -163.5t54.5 -230.5q0 -69 -16.5 -129.5t-42.5 -104.5t-62.5 -80t-73.5 -58.5t-77 -36.5l278 -502h-403l-230 463h-180v-463h-352zM475 762h279q71 0 120.5 42t49.5 111t-49.5 111.5t-120.5 42.5h-279v-307z" />
<glyph unicode="S" horiz-adv-x="1241" d="M25 193l186 264q80 -80 192.5 -130.5t243.5 -50.5q89 0 142 33t53 84q0 54 -56 83.5t-178 55.5q-191 38 -277 72q-223 88 -257 278q-6 36 -6 76q0 180 146 304t398 124q335 0 555 -190l-192 -252q-83 68 -186.5 104.5t-198.5 36.5q-83 0 -122.5 -29t-39.5 -77 q0 -50 54 -75.5t182 -49.5q65 -14 102 -22.5t101.5 -27.5t103.5 -38.5t87.5 -52.5t75.5 -70.5t46.5 -92t19.5 -118.5q0 -209 -149 -333t-420 -124q-378 0 -606 218z" />
<glyph unicode="T" horiz-adv-x="1206" d="M45 1059v307h1116v-307h-381v-1059h-352v1059h-383z" />
<glyph unicode="U" horiz-adv-x="1513" d="M123 553v813h358v-801q0 -127 70 -202.5t207 -75.5q136 0 205 75.5t69 202.5v801h359v-811q0 -130 -38 -234.5t-114 -182.5t-198 -120.5t-283 -42.5t-283.5 42.5t-199 120.5t-114.5 182.5t-38 232.5z" />
<glyph unicode="V" d="M-23 1366h400l336 -985l338 985h399l-516 -1366h-442z" />
<glyph unicode="W" horiz-adv-x="1916" d="M-12 1366h395l207 -911l233 911h271l233 -911l205 911h397l-391 -1366h-373l-207 856l-206 -856h-373z" />
<glyph unicode="X" horiz-adv-x="1384" d="M-23 0l478 700l-447 666h416l268 -428l264 428h418l-444 -664l475 -702h-416l-297 459l-297 -459h-418z" />
<glyph unicode="Y" horiz-adv-x="1341" d="M-23 1366h398l297 -504l293 504h399l-516 -815v-551h-352v551z" />
<glyph unicode="Z" horiz-adv-x="1220" d="M80 0v281l582 778h-582v307h1046v-281l-583 -778h598v-307h-1061z" />
<glyph unicode="[" horiz-adv-x="610" d="M104 -389v1778h471v-203h-249v-1372h249v-203h-471z" />
<glyph unicode="\" horiz-adv-x="708" d="M0 1407h223l486 -1448h-224z" />
<glyph unicode="]" horiz-adv-x="610" d="M37 -186h250v1372h-250v203h471v-1778h-471v203z" />
<glyph unicode="^" horiz-adv-x="911" d="M39 682l305 684h227l301 -684h-223l-192 473l-191 -473h-227z" />
<glyph unicode="_" horiz-adv-x="1155" d="M-6 -82h1167v-203h-1167v203z" />
<glyph unicode="`" horiz-adv-x="538" d="M0 1434h279l260 -295h-213z" />
<glyph unicode="a" horiz-adv-x="1128" d="M51 301q0 69 21 124t54.5 89.5t79 57t91.5 31.5t94 9q100 0 181.5 -29.5t125.5 -84.5v125q0 65 -53 104t-147 39q-159 0 -281 -104l-113 198q91 78 209 116t240 38q75 0 139.5 -11.5t125 -40t103 -72.5t68 -113.5t25.5 -158.5v-618h-316v98q-46 -56 -129 -89.5 t-178 -33.5q-59 0 -117.5 20t-109 58.5t-82 103t-31.5 144.5zM365 297q0 -56 45 -85.5t112 -29.5q55 0 103.5 19t72.5 53v88q-24 33 -73 51.5t-103 18.5q-67 0 -112 -29.5t-45 -85.5z" />
<glyph unicode="b" horiz-adv-x="1210" d="M115 0v1366h315v-494q113 142 293 142q189 0 312.5 -140.5t123.5 -377.5q0 -244 -123 -382.5t-313 -138.5q-171 0 -293 140v-115h-315zM430 342q29 -39 82.5 -63.5t105.5 -24.5q96 0 158 66t62 176q0 108 -62 173.5t-158 65.5q-52 0 -105.5 -25.5t-82.5 -64.5v-303z" />
<glyph unicode="c" horiz-adv-x="1024" d="M49 496q0 229 153.5 373.5t387.5 144.5q147 0 250.5 -53.5t154.5 -129.5l-204 -190q-64 94 -187 94q-101 0 -166 -64.5t-65 -174.5t65.5 -176t165.5 -66q119 0 187 96l204 -192q-52 -75 -155.5 -129t-249.5 -54q-234 0 -387.5 145t-153.5 376z" />
<glyph unicode="d" horiz-adv-x="1210" d="M49 496q0 238 123.5 378t314.5 140q177 0 293 -142v494h314v-1366h-314v115q-122 -140 -293 -140q-190 0 -314 138.5t-124 382.5zM373 496q0 -109 61 -175.5t156 -66.5q52 0 106 25.5t84 64.5v303q-30 39 -84 63.5t-106 24.5q-95 0 -156 -65t-61 -174z" />
<glyph unicode="e" horiz-adv-x="1122" d="M49 496q0 143 66.5 261t187.5 187.5t272 69.5q223 0 364.5 -151t141.5 -400v-68h-704q14 -74 80.5 -125t171.5 -51q66 0 132.5 23.5t108.5 60.5l134 -197q-71 -64 -183 -97.5t-231 -33.5q-153 0 -275 62t-194 182t-72 277zM373 600h407q-3 29 -15.5 56.5t-35 54t-62.5 43 t-92 16.5q-49 0 -87.5 -16t-61 -42.5t-35.5 -54t-18 -57.5z" />
<glyph unicode="f" horiz-adv-x="714" d="M18 715v274h164v49q0 156 99.5 252t255.5 96q126 0 208 -45l-57 -215q-38 21 -82 21q-50 0 -79 -30.5t-29 -86.5v-41h200v-274h-200v-715h-316v715h-164z" />
<glyph unicode="g" horiz-adv-x="1208" d="M49 516q0 237 121.5 367.5t314.5 130.5q177 0 293 -142v117h314v-901q0 -116 -36 -205t-92 -141.5t-133.5 -86t-150.5 -45t-154 -11.5q-258 0 -438 147l137 225q106 -114 301 -114q34 0 66.5 5.5t67 21.5t60 40.5t42 65.5t16.5 94v76q-123 -144 -293 -144 q-92 0 -170.5 31.5t-138 92.5t-93.5 157.5t-34 218.5zM373 516q0 -106 60 -163.5t157 -57.5q51 0 105 24.5t83 63.5v264q-29 39 -83 63.5t-105 24.5q-97 0 -157 -57.5t-60 -161.5z" />
<glyph unicode="h" horiz-adv-x="1216" d="M117 0v1366h315v-498q51 61 139.5 103.5t202.5 42.5q163 0 245.5 -83.5t82.5 -225.5v-705h-316v575q0 87 -41.5 123.5t-121.5 36.5q-112 0 -191 -96v-639h-315z" />
<glyph unicode="i" horiz-adv-x="544" d="M92 1294q0 75 52.5 128t127.5 53t128 -53t53 -128t-53 -127.5t-128 -52.5t-127.5 52.5t-52.5 127.5zM115 0v989h315v-989h-315z" />
<glyph unicode="j" horiz-adv-x="544" d="M-66 -393l9 256q18 -4 53 -4q56 0 87.5 37.5t31.5 111.5v981h315v-981q0 -188 -96 -298.5t-287 -110.5q-72 0 -113 8zM92 1294q0 75 52.5 128t127.5 53t128 -53t53 -128t-53 -127.5t-128 -52.5t-127.5 52.5t-52.5 127.5z" />
<glyph unicode="k" horiz-adv-x="1118" d="M115 0v1366h315v-772l301 395h381l-364 -450l382 -539h-389l-217 350l-94 -112v-238h-315z" />
<glyph unicode="l" horiz-adv-x="544" d="M115 0v1366h315v-1366h-315z" />
<glyph unicode="m" horiz-adv-x="1792" d="M115 0v989h315v-121q39 52 129.5 99t196.5 47q218 0 280 -176q47 71 140 123.5t202 52.5q140 0 218.5 -74.5t78.5 -222.5v-717h-313v602q0 61 -32 97t-99 36q-105 0 -178 -96v-639h-316v602q0 133 -131 133q-99 0 -176 -96v-639h-315z" />
<glyph unicode="n" horiz-adv-x="1214" d="M115 0v989h315v-121q51 61 139.5 103.5t202.5 42.5q163 0 245.5 -85.5t82.5 -228.5v-700h-316v571q0 164 -161 164q-114 0 -193 -96v-639h-315z" />
<glyph unicode="o" horiz-adv-x="1179" d="M49 496q0 105 37.5 199t105.5 165t170.5 112.5t225.5 41.5q165 0 289.5 -72t187.5 -188.5t63 -257.5t-63 -258.5t-187.5 -190t-289.5 -72.5q-163 0 -287.5 72.5t-188 190t-63.5 258.5zM375 496q0 -104 57 -173t156 -69q101 0 159 69t58 173q0 102 -58 170.5t-159 68.5 q-99 0 -156 -68.5t-57 -170.5z" />
<glyph unicode="p" horiz-adv-x="1208" d="M115 -377v1366h315v-115q116 140 293 140q192 0 313 -137t121 -381q0 -245 -121 -383t-313 -138q-174 0 -293 142v-494h-315zM430 344q29 -38 83 -64t105 -26q94 0 156 66t62 176q0 108 -62 173.5t-156 65.5q-52 0 -105.5 -25.5t-82.5 -64.5v-301z" />
<glyph unicode="q" horiz-adv-x="1208" d="M49 496q0 244 121.5 381t314.5 137q177 0 293 -140v115h314v-1366h-314v494q-119 -142 -293 -142q-193 0 -314.5 138t-121.5 383zM373 496q0 -110 61.5 -176t155.5 -66q50 0 104.5 26t83.5 64v301q-29 39 -83 64.5t-105 25.5q-94 0 -155.5 -65.5t-61.5 -173.5z" />
<glyph unicode="r" horiz-adv-x="768" d="M115 0v989h315v-125q52 63 137.5 106.5t171.5 43.5v-305q-30 10 -77 10q-65 0 -134 -25.5t-98 -66.5v-627h-315z" />
<glyph unicode="s" horiz-adv-x="991" d="M31 127l131 217q58 -51 160.5 -91t187.5 -40q133 0 133 74q0 24 -22.5 41.5t-56.5 26.5t-91 18q-154 27 -220 53q-184 75 -185 262q0 137 113.5 231.5t310.5 94.5q235 0 413 -131l-121 -209q-47 46 -126 77t-164 31q-57 0 -91 -17.5t-34 -49.5t36.5 -48.5t120.5 -31.5 q40 -7 59.5 -10.5t60.5 -13t64 -17.5t59 -23t57 -31.5t46.5 -40.5t39 -52t23 -64.5t9.5 -79.5q0 -145 -120.5 -236.5t-329.5 -91.5q-132 0 -258.5 41.5t-204.5 110.5z" />
<glyph unicode="t" horiz-adv-x="737" d="M16 715v274h164v271h314v-271h200v-274h-200v-361q0 -44 24 -72t64 -28q25 0 48.5 8t31.5 17l61 -238q-70 -66 -234 -66q-151 0 -230 74.5t-79 216.5v449h-164z" />
<glyph unicode="u" horiz-adv-x="1212" d="M115 285v704h315v-575q0 -86 42 -123t122 -37q112 0 188 96v639h316v-989h-316v119q-53 -61 -140.5 -102.5t-201.5 -41.5q-163 0 -244 83.5t-81 226.5z" />
<glyph unicode="v" horiz-adv-x="1073" d="M-20 989h331l224 -627l225 627h334l-389 -989h-336z" />
<glyph unicode="w" horiz-adv-x="1611" d="M-12 989h323l160 -606l195 606h280l195 -606l157 606h326l-293 -989h-340l-186 612l-184 -612h-340z" />
<glyph unicode="x" horiz-adv-x="1048" d="M-12 0l338 508l-318 481h346l170 -268l168 268h346l-315 -481l338 -508h-346l-191 299l-192 -299h-344z" />
<glyph unicode="y" horiz-adv-x="1073" d="M-20 989h331l224 -627l225 627h334l-447 -1130q-29 -76 -71.5 -128t-98 -79.5t-114 -39t-134.5 -13.5q-82 0 -135 16l45 281q36 -19 78 -19q112 0 133 55l23 54z" />
<glyph unicode="z" horiz-adv-x="989" d="M78 0v231l397 484h-397v274h825v-223l-405 -494h413v-272h-833z" />
<glyph unicode="{" horiz-adv-x="618" d="M6 416v168q52 0 79.5 37.5t27.5 97.5v317q0 158 102.5 255.5t245.5 97.5h123v-203h-123q-54 0 -90.5 -41.5t-36.5 -108.5v-352q0 -144 -94 -184q94 -40 94 -185v-352q0 -65 37 -107t90 -42h123v-203h-123q-143 0 -245.5 96t-102.5 254v320q0 60 -27.5 97.5t-79.5 37.5z " />
<glyph unicode="|" horiz-adv-x="448" d="M123 -41v1448h203v-1448h-203z" />
<glyph unicode="}" horiz-adv-x="618" d="M35 -186h123q53 0 90 42t37 107v352q0 145 94 185q-94 40 -94 184v352q0 67 -36.5 108.5t-90.5 41.5h-123v203h123q143 0 245.5 -97.5t102.5 -255.5v-317q0 -60 27 -97.5t79 -37.5v-168q-52 0 -79 -37.5t-27 -97.5v-320q0 -158 -102.5 -254t-245.5 -96h-123v203z" />
<glyph unicode="~" horiz-adv-x="1052" d="M51 440q6 68 14 123.5t23 116.5t39 107t56.5 84.5t79.5 58.5t106 20q34 0 63.5 -8t50 -18.5t39.5 -32t29.5 -35.5t23.5 -44t17.5 -43t14.5 -45l3 -9q16 -57 32 -85t44 -28q82 0 109 350l204 -26q-6 -82 -16 -147t-32.5 -135.5t-55 -117.5t-86 -77.5t-123.5 -30.5 q-35 0 -65 8.5t-50.5 19.5t-39.5 32.5t-30 37.5t-23.5 45t-17.5 44t-14 44q-10 32 -15 46t-15 33.5t-21 27.5t-26 8q-80 0 -107 -346z" />
<glyph unicode="&#xa1;" horiz-adv-x="548" d="M82 821q0 77 56 134t134 57t134.5 -57t56.5 -134q0 -78 -56.5 -135t-134.5 -57t-134 57t-56 135zM86 -377l47 889h281l49 -889h-377z" />
<glyph unicode="&#xa2;" horiz-adv-x="1024" d="M49 496q0 201 119.5 339t312.5 171v151h224v-153q103 -19 177 -66.5t113 -106.5l-204 -190q-64 94 -187 94q-101 0 -166 -64.5t-65 -174.5t65.5 -176t165.5 -66q119 0 187 96l204 -192q-39 -58 -113 -105.5t-177 -66.5v-191h-224v189q-193 33 -312.5 171t-119.5 341z" />
<glyph unicode="&#xa3;" horiz-adv-x="1157" d="M49 551v197h109q-70 115 -70 204q0 100 47 184.5t122 137.5t165.5 82.5t181.5 29.5q374 0 508 -256l-281 -161q-23 63 -72 98t-110 35q-75 0 -124.5 -44.5t-49.5 -111.5q0 -34 9.5 -67.5t20.5 -55.5t30 -55l12 -20h284v-197h-225v-14q0 -61 -35 -119t-88 -88q44 16 99 16 q12 0 23.5 -1t23 -3t19.5 -3.5t20 -5.5t17 -5.5t18 -6.5t16 -6q61 -28 112 -28q114 0 166 71l138 -278q-98 -105 -316 -105q-102 0 -233 52q-85 36 -140 36q-98 0 -235 -77l-117 235q87 43 143 100.5t56 124.5q0 47 -21 105h-223z" />
<glyph unicode="&#xa4;" horiz-adv-x="1300" d="M45 262l143 144q-75 126 -75 276q0 155 77 279l-145 145l184 184l154 -155q121 59 268 59q149 0 267 -59l155 155l182 -184l-143 -145q78 -125 78 -279q0 -158 -80 -279l145 -141l-182 -184l-155 151q-115 -59 -267 -59q-151 0 -270 61l-152 -153zM426 682 q0 -100 60.5 -166.5t164.5 -66.5q105 0 165.5 66t60.5 167q0 99 -60.5 165t-165.5 66q-104 0 -164.5 -66t-60.5 -165z" />
<glyph unicode="&#xa5;" horiz-adv-x="1341" d="M-23 1366h398l297 -504l293 504h399l-397 -627h327v-188h-446v-135h446v-189h-446v-227h-352v227h-447v189h447v135h-447v188h328z" />
<glyph unicode="&#xa6;" horiz-adv-x="448" d="M123 -41v647h203v-647h-203zM123 760v647h203v-647h-203z" />
<glyph unicode="&#xa7;" horiz-adv-x="1007" d="M37 -4l125 199q59 -58 151.5 -102t180.5 -44q69 0 109 22t40 64q0 24 -14 42t-46.5 31t-59.5 20t-79 18q-39 9 -57 13t-56 14.5t-58 19t-52.5 24t-50.5 31t-40.5 38.5t-34 49t-19.5 59.5t-8 72.5q0 48 17.5 91.5t45.5 74t58 52t61 34.5q-182 75 -182 262q0 131 119.5 218 t301.5 87q263 0 414 -135l-119 -186q-53 47 -128 75.5t-150 28.5q-66 0 -101.5 -21t-35.5 -61q0 -20 13 -35t43.5 -26t55.5 -17t74 -16q39 -8 58 -12t58 -13.5t60 -17.5t54.5 -22.5t52.5 -30t42 -38.5t35 -48.5t20.5 -59.5t8.5 -73q0 -82 -43 -151.5t-121 -110.5 q164 -77 164 -252q0 -153 -126 -241.5t-324 -88.5q-268 0 -457 162zM369 618q0 -31 14 -54t41 -37.5t53 -22.5t62 -15q96 38 96 125q0 96 -141 129q-125 -30 -125 -125z" />
<glyph unicode="&#xa8;" horiz-adv-x="876" d="M57 1274q0 68 47.5 115t114.5 47t113.5 -47t46.5 -115t-46.5 -114t-113.5 -46q-68 0 -115 46.5t-47 113.5zM496 1274q0 68 47 115t114 47q66 0 114 -47.5t48 -114.5t-47.5 -113.5t-114.5 -46.5q-68 0 -114.5 46.5t-46.5 113.5z" />
<glyph unicode="&#xa9;" horiz-adv-x="1593" d="M90 682q0 192 95 355t258 257.5t354 94.5q144 0 275 -56t225 -150.5t150 -225.5t56 -275q0 -143 -56 -274t-150 -226t-225 -151t-275 -56q-191 0 -354 95t-258 258t-95 354zM170 682q0 -169 84.5 -313.5t229 -229t313.5 -84.5t313.5 84.5t228.5 229t84 313.5t-84 313.5 t-228.5 229t-313.5 84.5t-313.5 -84.5t-229 -229t-84.5 -313.5zM385 684q0 185 123.5 306.5t302.5 121.5q188 0 305 -137l-72 -70q-41 55 -101.5 87t-131.5 32q-136 0 -230 -96t-94 -244q0 -146 94.5 -245t229.5 -99q72 0 133.5 32.5t102.5 88.5l71 -68q-121 -141 -307 -141 q-179 0 -302.5 123t-123.5 309z" />
<glyph unicode="&#xaa;" horiz-adv-x="796" d="M51 862q0 101 68.5 154t156.5 53q74 0 125.5 -21.5t77.5 -50.5v64q0 45 -34.5 72.5t-94.5 27.5q-102 0 -182 -80l-80 146q60 50 141 75t160 25q64 0 117 -13t99 -42t71.5 -83.5t25.5 -131.5v-389h-223v61q-69 -78 -203 -78q-87 0 -156 55.5t-69 155.5zM272 862 q0 -37 29 -55.5t70 -18.5q32 0 62.5 13.5t45.5 36.5v51q-15 21 -45.5 34t-62.5 13q-41 0 -70 -18.5t-29 -55.5z" />
<glyph unicode="&#xab;" horiz-adv-x="1169" d="M61 498l328 362h285l-328 -362l328 -369h-285zM496 498l327 362h285l-328 -362l328 -369h-285z" />
<glyph unicode="&#xac;" horiz-adv-x="1067" d="M59 780v189h920v-570h-193v381h-727z" />
<glyph unicode="&#xad;" horiz-adv-x="614" d="M61 365v264h492v-264h-492z" />
<glyph unicode="&#xae;" horiz-adv-x="1011" d="M72 952q0 181 127 307.5t307 126.5q119 0 219 -57.5t157.5 -157.5t57.5 -219q0 -180 -126.5 -307t-307.5 -127q-180 0 -307 127t-127 307zM139 952q0 -151 107.5 -258.5t259.5 -107.5t258 107.5t106 258.5q0 154 -106 259.5t-258 105.5q-153 0 -260 -106t-107 -259z M338 702v498h203q71 0 118.5 -41.5t47.5 -109.5q0 -72 -46 -110t-81 -38l133 -199h-90l-129 197h-82v-197h-74zM412 963h129q39 0 64.5 24t25.5 62q0 41 -25.5 65.5t-64.5 24.5h-129v-176z" />
<glyph unicode="&#xaf;" horiz-adv-x="743" d="M14 1139v174h715v-174h-715z" />
<glyph unicode="&#xb0;" horiz-adv-x="657" d="M37 1096q0 120 85.5 205t205.5 85t205 -85t85 -205q0 -121 -85 -206t-205 -85t-205.5 85t-85.5 206zM203 1096q0 -53 36.5 -90t88.5 -37q53 0 91 37.5t38 89.5t-38.5 90.5t-90.5 38.5t-88.5 -38t-36.5 -91z" />
<glyph unicode="&#xb1;" horiz-adv-x="1038" d="M59 0v188h920v-188h-920zM59 670v188h357v389h207v-389h356v-188h-356v-406h-207v406h-357z" />
<glyph unicode="&#xb2;" horiz-adv-x="823" d="M59 1556q65 70 158 104t186 34q158 0 253.5 -69.5t95.5 -192.5q0 -88 -72.5 -173.5t-251.5 -211.5h330v-185h-668v168q192 134 279.5 202t118 106t30.5 75q0 45 -33 70.5t-88 25.5q-64 0 -125 -31t-94 -69z" />
<glyph unicode="&#xb3;" horiz-adv-x="823" d="M57 977l111 151q46 -47 110.5 -71.5t120.5 -24.5q64 0 98.5 21t34.5 55q0 47 -40.5 62.5t-124.5 15.5q-85 0 -97 -2v182q18 -2 95 -2q80 0 116.5 17t36.5 57q0 35 -36 53t-97 18q-127 0 -213 -86l-104 138q123 133 342 133q164 0 252 -62t88 -164q0 -68 -52.5 -120 t-130.5 -64q75 -7 136 -58t61 -134q0 -108 -97.5 -176t-256.5 -68q-118 0 -209.5 35.5t-143.5 93.5z" />
<glyph unicode="&#xb4;" horiz-adv-x="538" d="M0 1139l260 295h279l-326 -295h-213z" />
<glyph unicode="&#xb5;" horiz-adv-x="1241" d="M115 -377v1366h315v-575q0 -160 164 -160q112 0 188 96v639h316v-657q0 -37 21.5 -57.5t54.5 -20.5q23 0 38 6l21 -266q-59 -19 -139 -19q-232 0 -293 179q-40 -80 -108 -129.5t-152 -49.5q-74 0 -111 37v-389h-315z" />
<glyph unicode="&#xb6;" horiz-adv-x="919" d="M55 1014q0 146 103.5 249t249.5 103h442v-1571h-145v1426h-152v-1426h-145v867q-146 0 -249.5 103t-103.5 249z" />
<glyph unicode="&#xb7;" horiz-adv-x="552" d="M84 500q0 78 56 135t134 57t135.5 -57t57.5 -135q0 -77 -57.5 -134t-135.5 -57t-134 57t-56 134z" />
<glyph unicode="&#xb8;" horiz-adv-x="468" d="M0 -338l57 119q84 -62 168 -62q40 0 68.5 15.5t28.5 44.5q0 43 -52 43q-32 0 -59 -27l-109 62l64 166h145l-51 -123q33 20 70 20q58 0 98.5 -41.5t40.5 -103.5q0 -83 -67.5 -132t-168.5 -49q-72 0 -135 20t-98 48z" />
<glyph unicode="&#xb9;" horiz-adv-x="636" d="M8 1382l305 299h201v-819h-233v522l-142 -141z" />
<glyph unicode="&#xba;" horiz-adv-x="829" d="M51 989q0 140 100 239t263 99q166 0 265 -98.5t99 -239.5t-99 -239.5t-265 -98.5q-163 0 -263 99t-100 239zM283 989q0 -76 34.5 -118t96.5 -42q63 0 99 42t36 118t-35.5 116t-99.5 40q-62 0 -96.5 -40t-34.5 -116z" />
<glyph unicode="&#xbb;" horiz-adv-x="1169" d="M61 129l328 369l-328 362h285l328 -362l-328 -369h-285zM496 129l327 369l-327 362h284l328 -362l-328 -369h-284z" />
<glyph unicode="&#xbc;" horiz-adv-x="1724" d="M8 1067l305 299h201v-819h-233v522l-142 -141zM303 0l873 1366h180l-875 -1366h-178zM950 160v157l307 502h328v-477h103v-182h-103v-160h-231v160h-404zM1180 342h174v283z" />
<glyph unicode="&#xbd;" horiz-adv-x="1826" d="M8 1067l305 299h201v-819h-233v522l-142 -141zM303 0l873 1366h180l-875 -1366h-178zM1063 694q65 70 157.5 103.5t186.5 33.5q158 0 253 -69.5t95 -192.5q0 -89 -72 -174t-251 -211h329v-184h-667v168q192 134 279.5 202t118 106t30.5 75q0 45 -33 70.5t-88 25.5 q-64 0 -125 -31t-94 -69z" />
<glyph unicode="&#xbe;" horiz-adv-x="1892" d="M57 662l111 151q46 -47 110.5 -71.5t120.5 -24.5q64 0 98.5 21t34.5 55q0 47 -40.5 62t-124.5 15q-85 0 -97 -2v183q18 -2 95 -2q80 0 116.5 16.5t36.5 56.5q0 36 -36 54t-97 18q-127 0 -213 -86l-104 137q123 133 342 133q164 0 252 -61.5t88 -163.5q0 -68 -52.5 -120 t-130.5 -64q75 -7 136 -58.5t61 -134.5q0 -108 -97.5 -176t-256.5 -68q-118 0 -209.5 35.5t-143.5 94.5zM471 0l872 1366h181l-875 -1366h-178zM1118 160v157l307 502h328v-477h102v-182h-102v-160h-231v160h-404zM1348 342h174v283z" />
<glyph unicode="&#xbf;" horiz-adv-x="817" d="M29 -72q0 60 16 109.5t50 89.5t58.5 61.5t69.5 55.5q42 30 63.5 47.5t40.5 47t19 60.5q0 51 -31 82l273 68q61 -70 61 -187q0 -41 -12 -78t-26 -61t-42.5 -51t-44 -39t-47.5 -35q-33 -23 -48 -34.5t-29.5 -31.5t-14.5 -40q0 -35 29.5 -57.5t91.5 -22.5q57 0 114 29 t101 77l197 -225q-83 -93 -202.5 -142.5t-248.5 -49.5q-201 0 -319.5 89t-118.5 238zM270 819q0 78 57.5 135.5t135.5 57.5t135 -57.5t57 -135.5q0 -77 -57 -133.5t-135 -56.5t-135.5 56.5t-57.5 133.5z" />
<glyph unicode="&#xc0;" d="M-23 0l515 1366h442l516 -1366h-383l-70 207h-567l-70 -207h-383zM285 1776h278l260 -295h-213zM522 504h383l-192 555z" />
<glyph unicode="&#xc1;" d="M-23 0l515 1366h442l516 -1366h-383l-70 207h-567l-70 -207h-383zM522 504h383l-192 555zM598 1481l260 295h279l-326 -295h-213z" />
<glyph unicode="&#xc2;" d="M-23 0l515 1366h442l516 -1366h-383l-70 207h-567l-70 -207h-383zM391 1481l184 295h277l190 -295h-188l-141 166l-135 -166h-187zM522 504h383l-192 555z" />
<glyph unicode="&#xc3;" d="M-23 0l515 1366h442l516 -1366h-383l-70 207h-567l-70 -207h-383zM373 1489q0 274 231 274q36 0 69 -12.5t47.5 -23.5t41.5 -33q18 -17 25 -23t21 -13t28 -7q27 0 44 25t17 75h160q0 -135 -59 -204.5t-173 -69.5q-36 0 -69 12.5t-47 23t-41 33.5q-18 17 -25 23t-21 13 t-28 7q-27 0 -44.5 -25t-17.5 -75h-159zM522 504h383l-192 555z" />
<glyph unicode="&#xc4;" d="M-23 0l515 1366h442l516 -1366h-383l-70 207h-567l-70 -207h-383zM334 1616q0 68 47 115t115 47q67 0 113 -47t46 -115t-46 -114t-113 -46q-68 0 -115 46.5t-47 113.5zM522 504h383l-192 555zM772 1616q0 68 47 115t115 47q66 0 114 -47.5t48 -114.5t-47.5 -113.5 t-114.5 -46.5q-68 0 -115 46.5t-47 113.5z" />
<glyph unicode="&#xc5;" d="M-23 0l515 1366h442l516 -1366h-383l-70 207h-567l-70 -207h-383zM494 1638q0 92 65.5 158t157.5 66q90 0 153.5 -65.5t63.5 -158.5q0 -91 -63.5 -156t-153.5 -65q-92 0 -157.5 65t-65.5 156zM522 504h383l-192 555zM633 1638q0 -34 24.5 -58t59.5 -24q34 0 57 24t23 58 q0 35 -23 59.5t-57 24.5q-35 0 -59.5 -24.5t-24.5 -59.5z" />
<glyph unicode="&#xc6;" horiz-adv-x="2004" d="M-35 0l819 1366h1147v-297h-649v-227h635v-299h-635v-246h649v-297h-1001v207h-465l-115 -207h-385zM625 504h305v555z" />
<glyph unicode="&#xc7;" horiz-adv-x="1417" d="M53 682q0 155 56.5 288t154 224.5t232 143t286.5 51.5q98 0 184.5 -21.5t150 -55.5t117.5 -83t90 -99t65 -108l-304 -143q-35 85 -118 141.5t-185 56.5q-159 0 -264.5 -113.5t-105.5 -281.5t105.5 -281.5t264.5 -113.5q102 0 185 56.5t118 141.5l304 -143 q-34 -68 -79.5 -125.5t-111.5 -111t-157.5 -87.5t-200.5 -41l-33 -77q33 20 70 20q58 0 98.5 -41.5t40.5 -103.5q0 -83 -67.5 -132t-168.5 -49q-72 0 -135 20t-98 48l57 119q84 -62 168 -62q40 0 68 15.5t28 44.5q0 43 -51 43q-32 0 -59 -27l-109 62l47 123q-137 14 -255 71 t-204 147.5t-135 215.5t-49 268z" />
<glyph unicode="&#xc8;" horiz-adv-x="1206" d="M123 0v1366h1001v-297h-649v-227h635v-299h-635v-246h649v-297h-1001zM209 1776h278l261 -295h-213z" />
<glyph unicode="&#xc9;" horiz-adv-x="1206" d="M123 0v1366h1001v-297h-649v-227h635v-299h-635v-246h649v-297h-1001zM522 1481l260 295h279l-326 -295h-213z" />
<glyph unicode="&#xca;" horiz-adv-x="1206" d="M123 0v1366h1001v-297h-649v-227h635v-299h-635v-246h649v-297h-1001zM315 1481l185 295h276l191 -295h-189l-141 166l-135 -166h-187z" />
<glyph unicode="&#xcb;" horiz-adv-x="1206" d="M123 0v1366h1001v-297h-649v-227h635v-299h-635v-246h649v-297h-1001zM258 1616q0 68 47 115t115 47q67 0 113.5 -47t46.5 -115t-46 -114t-114 -46t-115 46.5t-47 113.5zM696 1616q0 68 47 115t115 47q66 0 114 -47.5t48 -114.5t-47.5 -113.5t-114.5 -46.5 q-68 0 -115 46.5t-47 113.5z" />
<glyph unicode="&#xcc;" horiz-adv-x="598" d="M-129 1776h279l260 -295h-213zM123 0v1366h352v-1366h-352z" />
<glyph unicode="&#xcd;" horiz-adv-x="598" d="M123 0v1366h352v-1366h-352zM184 1481l260 295h279l-326 -295h-213z" />
<glyph unicode="&#xce;" horiz-adv-x="598" d="M-23 1481l185 295h276l191 -295h-189l-141 166l-135 -166h-187zM123 0v1366h352v-1366h-352z" />
<glyph unicode="&#xcf;" horiz-adv-x="598" d="M-80 1616q0 68 47 115t115 47q67 0 113.5 -47t46.5 -115t-46 -114t-114 -46t-115 46.5t-47 113.5zM123 0v1366h352v-1366h-352zM358 1616q0 68 47 115t115 47q66 0 114 -47.5t48 -114.5t-47.5 -113.5t-114.5 -46.5q-68 0 -115 46.5t-47 113.5z" />
<glyph unicode="&#xd0;" horiz-adv-x="1536" d="M16 543v272h154v551h573q215 0 381.5 -81t261.5 -237t95 -364t-95 -364.5t-261 -238t-380 -81.5h-575v543h-154zM522 307h221q174 0 276.5 109t102.5 268q0 165 -98 270t-279 105h-223v-244h285v-272h-285v-236z" />
<glyph unicode="&#xd1;" horiz-adv-x="1515" d="M123 0v1366h362l553 -786v786h355v-1366h-340l-578 825v-825h-352zM416 1489q0 274 231 274q36 0 69 -12.5t47.5 -23.5t41.5 -33q18 -17 25 -23t21 -13t28 -7q27 0 44 25t17 75h160q0 -135 -59 -204.5t-173 -69.5q-36 0 -69 12.5t-47 23t-41 33.5q-18 17 -25 23t-21 13 t-28 7q-27 0 -44.5 -25t-17.5 -75h-159z" />
<glyph unicode="&#xd2;" horiz-adv-x="1568" d="M53 682q0 153 55.5 285.5t152.5 224.5t232.5 144.5t290.5 52.5t290 -52.5t231.5 -144.5t152 -224.5t55.5 -285.5t-55.5 -285.5t-152 -224.5t-231.5 -144.5t-290 -52.5t-290.5 52.5t-232.5 144.5t-152.5 224.5t-55.5 285.5zM354 1776h279l260 -295h-213zM412 682 q0 -169 102.5 -282t269.5 -113q166 0 268.5 113t102.5 282q0 170 -102.5 282.5t-268.5 112.5q-167 0 -269.5 -112.5t-102.5 -282.5z" />
<glyph unicode="&#xd3;" horiz-adv-x="1568" d="M53 682q0 153 55.5 285.5t152.5 224.5t232.5 144.5t290.5 52.5t290 -52.5t231.5 -144.5t152 -224.5t55.5 -285.5t-55.5 -285.5t-152 -224.5t-231.5 -144.5t-290 -52.5t-290.5 52.5t-232.5 144.5t-152.5 224.5t-55.5 285.5zM412 682q0 -169 102.5 -282t269.5 -113 q166 0 268.5 113t102.5 282q0 170 -102.5 282.5t-268.5 112.5q-167 0 -269.5 -112.5t-102.5 -282.5zM668 1481l260 295h278l-325 -295h-213z" />
<glyph unicode="&#xd4;" horiz-adv-x="1568" d="M53 682q0 153 55.5 285.5t152.5 224.5t232.5 144.5t290.5 52.5t290 -52.5t231.5 -144.5t152 -224.5t55.5 -285.5t-55.5 -285.5t-152 -224.5t-231.5 -144.5t-290 -52.5t-290.5 52.5t-232.5 144.5t-152.5 224.5t-55.5 285.5zM412 682q0 -169 102.5 -282t269.5 -113 q166 0 268.5 113t102.5 282q0 170 -102.5 282.5t-268.5 112.5q-167 0 -269.5 -112.5t-102.5 -282.5zM461 1481l184 295h277l190 -295h-188l-142 166l-135 -166h-186z" />
<glyph unicode="&#xd5;" horiz-adv-x="1568" d="M53 682q0 153 55.5 285.5t152.5 224.5t232.5 144.5t290.5 52.5t290 -52.5t231.5 -144.5t152 -224.5t55.5 -285.5t-55.5 -285.5t-152 -224.5t-231.5 -144.5t-290 -52.5t-290.5 52.5t-232.5 144.5t-152.5 224.5t-55.5 285.5zM412 682q0 -169 102.5 -282t269.5 -113 q166 0 268.5 113t102.5 282q0 170 -102.5 282.5t-268.5 112.5q-167 0 -269.5 -112.5t-102.5 -282.5zM442 1489q0 274 232 274q36 0 69 -12.5t47 -23t41 -33.5q18 -17 25 -23t21 -13t28 -7q27 0 44.5 25t17.5 75h159q0 -135 -58.5 -204.5t-172.5 -69.5q-36 0 -69 12.5 t-47.5 23.5t-41.5 33q-2 2 -7.5 7t-7 6.5t-6.5 6t-7 6t-6.5 4.5t-7.5 4.5l-7 3.5t-7.5 3t-8 1.5t-8.5 0.5q-27 0 -44.5 -25t-17.5 -75h-160z" />
<glyph unicode="&#xd6;" horiz-adv-x="1568" d="M53 682q0 153 55.5 285.5t152.5 224.5t232.5 144.5t290.5 52.5t290 -52.5t231.5 -144.5t152 -224.5t55.5 -285.5t-55.5 -285.5t-152 -224.5t-231.5 -144.5t-290 -52.5t-290.5 52.5t-232.5 144.5t-152.5 224.5t-55.5 285.5zM403 1616q0 68 47.5 115t114.5 47t113.5 -47 t46.5 -115t-46.5 -114t-113.5 -46q-68 0 -115 46.5t-47 113.5zM412 682q0 -169 102.5 -282t269.5 -113q166 0 268.5 113t102.5 282q0 170 -102.5 282.5t-268.5 112.5q-167 0 -269.5 -112.5t-102.5 -282.5zM842 1616q0 68 47 115t115 47q66 0 113.5 -47.5t47.5 -114.5 t-47.5 -113.5t-113.5 -46.5q-68 0 -115 46.5t-47 113.5z" />
<glyph unicode="&#xd7;" horiz-adv-x="1038" d="M104 401l283 283l-283 283l136 131l280 -281l281 281l133 -131l-281 -283l281 -283l-133 -131l-281 281l-280 -281z" />
<glyph unicode="&#xd8;" horiz-adv-x="1568" d="M53 682q0 153 55.5 285.5t152.5 224.5t232.5 144.5t290.5 52.5q186 0 336 -72l107 147l141 -102l-100 -137q117 -97 181 -236t64 -307q0 -153 -55.5 -285.5t-152 -224.5t-231.5 -144.5t-290 -52.5q-197 0 -358 82l-113 -155l-141 102l109 152q-108 96 -168 231t-60 295z M412 682q0 -140 73 -246l443 615q-70 26 -144 26q-167 0 -269.5 -112.5t-102.5 -282.5zM618 324q70 -37 166 -37q166 0 268.5 113t102.5 282q0 155 -86 264z" />
<glyph unicode="&#xd9;" horiz-adv-x="1513" d="M123 553v813h358v-801q0 -127 70 -202.5t207 -75.5q136 0 205 75.5t69 202.5v801h359v-811q0 -130 -38 -234.5t-114 -182.5t-198 -120.5t-283 -42.5t-283.5 42.5t-199 120.5t-114.5 182.5t-38 232.5zM328 1776h278l260 -295h-213z" />
<glyph unicode="&#xda;" horiz-adv-x="1513" d="M123 553v813h358v-801q0 -127 70 -202.5t207 -75.5q136 0 205 75.5t69 202.5v801h359v-811q0 -130 -38 -234.5t-114 -182.5t-198 -120.5t-283 -42.5t-283.5 42.5t-199 120.5t-114.5 182.5t-38 232.5zM643 1481l260 295h279l-326 -295h-213z" />
<glyph unicode="&#xdb;" horiz-adv-x="1513" d="M123 553v813h358v-801q0 -127 70 -202.5t207 -75.5q136 0 205 75.5t69 202.5v801h359v-811q0 -130 -38 -234.5t-114 -182.5t-198 -120.5t-283 -42.5t-283.5 42.5t-199 120.5t-114.5 182.5t-38 232.5zM436 1481l185 295h276l190 -295h-188l-141 166l-135 -166h-187z" />
<glyph unicode="&#xdc;" horiz-adv-x="1513" d="M123 553v813h358v-801q0 -127 70 -202.5t207 -75.5q136 0 205 75.5t69 202.5v801h359v-811q0 -130 -38 -234.5t-114 -182.5t-198 -120.5t-283 -42.5t-283.5 42.5t-199 120.5t-114.5 182.5t-38 232.5zM377 1616q0 68 47.5 115t114.5 47t113 -47t46 -115t-46 -114t-113 -46 q-68 0 -115 46.5t-47 113.5zM815 1616q0 68 47.5 115t114.5 47q66 0 114 -47.5t48 -114.5t-47.5 -113.5t-114.5 -46.5q-68 0 -115 46.5t-47 113.5z" />
<glyph unicode="&#xdd;" horiz-adv-x="1341" d="M-23 1366h398l297 -504l293 504h399l-516 -815v-551h-352v551zM555 1481l260 295h279l-326 -295h-213z" />
<glyph unicode="&#xde;" horiz-adv-x="1316" d="M123 0v1366h352v-209h332q112 0 203 -36.5t150 -99t90.5 -145t31.5 -176.5q0 -194 -126.5 -322t-348.5 -128h-332v-250h-352zM475 547h275q81 0 127.5 42.5t46.5 112.5t-47 114t-127 44h-275v-313z" />
<glyph unicode="&#xdf;" horiz-adv-x="1206" d="M117 0v913q0 207 136 340t339 133q125 0 230 -47t168 -133.5t63 -195.5q0 -95 -50.5 -168.5t-138.5 -114.5q128 -38 206.5 -138.5t78.5 -221.5t-54.5 -211.5t-142.5 -135.5t-194 -45q-150 0 -256 66l61 231q55 -30 119 -30q62 0 103.5 41.5t41.5 117.5q0 83 -71 134.5 t-207 48.5v241q96 0 142 43t46 107q0 62 -39.5 97.5t-97.5 35.5q-76 0 -122 -51t-46 -148v-909h-315z" />
<glyph unicode="&#xe0;" horiz-adv-x="1128" d="M51 301q0 69 21 124t54.5 89.5t79 57t91.5 31.5t94 9q100 0 181.5 -29.5t125.5 -84.5v125q0 65 -53 104t-147 39q-159 0 -281 -104l-113 198q91 78 209 116t240 38q75 0 139.5 -11.5t125 -40t103 -72.5t68 -113.5t25.5 -158.5v-618h-316v98q-46 -56 -129 -89.5 t-178 -33.5q-59 0 -117.5 20t-109 58.5t-82 103t-31.5 144.5zM131 1434h279l260 -295h-213zM365 297q0 -56 45 -85.5t112 -29.5q55 0 103.5 19t72.5 53v88q-24 33 -73 51.5t-103 18.5q-67 0 -112 -29.5t-45 -85.5z" />
<glyph unicode="&#xe1;" horiz-adv-x="1128" d="M51 301q0 69 21 124t54.5 89.5t79 57t91.5 31.5t94 9q100 0 181.5 -29.5t125.5 -84.5v125q0 65 -53 104t-147 39q-159 0 -281 -104l-113 198q91 78 209 116t240 38q75 0 139.5 -11.5t125 -40t103 -72.5t68 -113.5t25.5 -158.5v-618h-316v98q-46 -56 -129 -89.5 t-178 -33.5q-59 0 -117.5 20t-109 58.5t-82 103t-31.5 144.5zM365 297q0 -56 45 -85.5t112 -29.5q55 0 103.5 19t72.5 53v88q-24 33 -73 51.5t-103 18.5q-67 0 -112 -29.5t-45 -85.5zM446 1139l261 295h278l-326 -295h-213z" />
<glyph unicode="&#xe2;" horiz-adv-x="1128" d="M51 301q0 69 21 124t54.5 89.5t79 57t91.5 31.5t94 9q100 0 181.5 -29.5t125.5 -84.5v125q0 65 -53 104t-147 39q-159 0 -281 -104l-113 198q91 78 209 116t240 38q75 0 139.5 -11.5t125 -40t103 -72.5t68 -113.5t25.5 -158.5v-618h-316v98q-46 -56 -129 -89.5 t-178 -33.5q-59 0 -117.5 20t-109 58.5t-82 103t-31.5 144.5zM240 1139l184 295h276l191 -295h-189l-141 166l-135 -166h-186zM365 297q0 -56 45 -85.5t112 -29.5q55 0 103.5 19t72.5 53v88q-24 33 -73 51.5t-103 18.5q-67 0 -112 -29.5t-45 -85.5z" />
<glyph unicode="&#xe3;" horiz-adv-x="1128" d="M51 301q0 69 21 124t54.5 89.5t79 57t91.5 31.5t94 9q100 0 181.5 -29.5t125.5 -84.5v125q0 65 -53 104t-147 39q-159 0 -281 -104l-113 198q91 78 209 116t240 38q75 0 139.5 -11.5t125 -40t103 -72.5t68 -113.5t25.5 -158.5v-618h-316v98q-46 -56 -129 -89.5 t-178 -33.5q-59 0 -117.5 20t-109 58.5t-82 103t-31.5 144.5zM219 1147q0 274 232 274q36 0 69 -12.5t47 -23t41 -33.5q18 -17 25 -23t21 -13t28 -7q27 0 44 25t17 75h160q0 -135 -58.5 -204.5t-172.5 -69.5q-36 0 -69 12.5t-47.5 23.5t-41.5 33q-18 17 -25 23t-21 13t-28 7 q-27 0 -44 -25t-17 -75h-160zM365 297q0 -56 45 -85.5t112 -29.5q55 0 103.5 19t72.5 53v88q-24 33 -73 51.5t-103 18.5q-67 0 -112 -29.5t-45 -85.5z" />
<glyph unicode="&#xe4;" horiz-adv-x="1128" d="M51 301q0 69 21 124t54.5 89.5t79 57t91.5 31.5t94 9q100 0 181.5 -29.5t125.5 -84.5v125q0 65 -53 104t-147 39q-159 0 -281 -104l-113 198q91 78 209 116t240 38q75 0 139.5 -11.5t125 -40t103 -72.5t68 -113.5t25.5 -158.5v-618h-316v98q-46 -56 -129 -89.5 t-178 -33.5q-59 0 -117.5 20t-109 58.5t-82 103t-31.5 144.5zM180 1274q0 68 47 115t115 47q67 0 113.5 -47t46.5 -115t-46 -114t-114 -46t-115 46.5t-47 113.5zM365 297q0 -56 45 -85.5t112 -29.5q55 0 103.5 19t72.5 53v88q-24 33 -73 51.5t-103 18.5q-67 0 -112 -29.5 t-45 -85.5zM618 1274q0 68 47 115t115 47q66 0 114 -47.5t48 -114.5t-47.5 -113.5t-114.5 -46.5q-68 0 -115 46.5t-47 113.5z" />
<glyph unicode="&#xe5;" horiz-adv-x="1128" d="M51 301q0 69 21 124t54.5 89.5t79 57t91.5 31.5t94 9q100 0 181.5 -29.5t125.5 -84.5v125q0 65 -53 104t-147 39q-159 0 -281 -104l-113 198q91 78 209 116t240 38q75 0 139.5 -11.5t125 -40t103 -72.5t68 -113.5t25.5 -158.5v-618h-316v98q-46 -56 -129 -89.5 t-178 -33.5q-59 0 -117.5 20t-109 58.5t-82 103t-31.5 144.5zM340 1296q0 92 65.5 158t157.5 66q90 0 153.5 -65.5t63.5 -158.5q0 -91 -63.5 -156t-153.5 -65q-92 0 -157.5 65t-65.5 156zM365 297q0 -56 45 -85.5t112 -29.5q55 0 103.5 19t72.5 53v88q-24 33 -73 51.5 t-103 18.5q-67 0 -112 -29.5t-45 -85.5zM479 1296q0 -34 24.5 -58t59.5 -24q34 0 57 24t23 58q0 35 -23 59.5t-57 24.5q-35 0 -59.5 -24.5t-24.5 -59.5z" />
<glyph unicode="&#xe6;" horiz-adv-x="1761" d="M51 297q0 156 100 238.5t252 82.5q100 0 187 -28.5t137 -81.5v115q0 64 -57.5 103.5t-155.5 39.5q-166 0 -297 -107l-113 201q91 78 210.5 116t242.5 38q238 0 332 -146q135 146 354 146q207 0 342 -151.5t135 -399.5v-68h-676q19 -73 80 -121.5t160 -48.5q61 0 122 23 t99 61l140 -203q-70 -63 -180 -97t-212 -34q-239 0 -368 158q-67 -71 -175.5 -114.5t-234.5 -43.5q-88 0 -163 19.5t-134.5 57.5t-93 101t-33.5 144zM365 309q0 -50 45 -76t108 -26q84 0 146.5 39.5t62.5 83.5v10q-27 33 -80.5 52.5t-111.5 19.5q-72 0 -121 -26.5t-49 -76.5 zM1040 600h379q-3 29 -14.5 56.5t-32.5 54t-58 43t-85 16.5q-85 0 -131.5 -51.5t-57.5 -118.5z" />
<glyph unicode="&#xe7;" horiz-adv-x="1024" d="M49 496q0 229 153.5 373.5t387.5 144.5q147 0 250.5 -53.5t154.5 -129.5l-204 -190q-64 94 -187 94q-101 0 -166 -64.5t-65 -174.5t65.5 -176t165.5 -66q119 0 187 96l204 -192q-47 -68 -137.5 -119.5t-216.5 -61.5l-33 -77q33 20 70 20q58 0 98.5 -41.5t40.5 -103.5 q0 -84 -67.5 -132.5t-167.5 -48.5q-72 0 -135.5 20t-98.5 48l58 119q84 -62 167 -62q40 0 68.5 15.5t28.5 44.5q0 43 -52 43q-32 0 -59 -27l-108 62l47 125q-200 28 -324.5 167t-124.5 347z" />
<glyph unicode="&#xe8;" horiz-adv-x="1122" d="M49 496q0 143 66.5 261t187.5 187.5t272 69.5q223 0 364.5 -151t141.5 -400v-68h-704q14 -74 80.5 -125t171.5 -51q66 0 132.5 23.5t108.5 60.5l134 -197q-71 -64 -183 -97.5t-231 -33.5q-153 0 -275 62t-194 182t-72 277zM147 1434h279l260 -295h-213zM373 600h407 q-3 29 -15.5 56.5t-35 54t-62.5 43t-92 16.5q-49 0 -87.5 -16t-61 -42.5t-35.5 -54t-18 -57.5z" />
<glyph unicode="&#xe9;" horiz-adv-x="1122" d="M49 496q0 143 66.5 261t187.5 187.5t272 69.5q223 0 364.5 -151t141.5 -400v-68h-704q14 -74 80.5 -125t171.5 -51q66 0 132.5 23.5t108.5 60.5l134 -197q-71 -64 -183 -97.5t-231 -33.5q-153 0 -275 62t-194 182t-72 277zM373 600h407q-3 29 -15.5 56.5t-35 54t-62.5 43 t-92 16.5q-49 0 -87.5 -16t-61 -42.5t-35.5 -54t-18 -57.5zM461 1139l260 295h278l-325 -295h-213z" />
<glyph unicode="&#xea;" horiz-adv-x="1122" d="M49 496q0 143 66.5 261t187.5 187.5t272 69.5q223 0 364.5 -151t141.5 -400v-68h-704q14 -74 80.5 -125t171.5 -51q66 0 132.5 23.5t108.5 60.5l134 -197q-71 -64 -183 -97.5t-231 -33.5q-153 0 -275 62t-194 182t-72 277zM254 1139l184 295h277l190 -295h-188l-142 166 l-135 -166h-186zM373 600h407q-3 29 -15.5 56.5t-35 54t-62.5 43t-92 16.5q-49 0 -87.5 -16t-61 -42.5t-35.5 -54t-18 -57.5z" />
<glyph unicode="&#xeb;" horiz-adv-x="1122" d="M49 496q0 143 66.5 261t187.5 187.5t272 69.5q223 0 364.5 -151t141.5 -400v-68h-704q14 -74 80.5 -125t171.5 -51q66 0 132.5 23.5t108.5 60.5l134 -197q-71 -64 -183 -97.5t-231 -33.5q-153 0 -275 62t-194 182t-72 277zM197 1274q0 68 47 115t114 47t113.5 -47 t46.5 -115t-46 -114t-114 -46t-114.5 46.5t-46.5 113.5zM373 600h407q-3 29 -15.5 56.5t-35 54t-62.5 43t-92 16.5q-49 0 -87.5 -16t-61 -42.5t-35.5 -54t-18 -57.5zM635 1274q0 68 47.5 115t114.5 47q66 0 113.5 -47.5t47.5 -114.5t-47.5 -113.5t-113.5 -46.5 q-68 0 -115 46.5t-47 113.5z" />
<glyph unicode="&#xec;" horiz-adv-x="544" d="M-158 1434h279l260 -295h-213zM115 0v989h315v-989h-315z" />
<glyph unicode="&#xed;" horiz-adv-x="544" d="M115 0v989h315v-989h-315zM158 1139l260 295h278l-325 -295h-213z" />
<glyph unicode="&#xee;" horiz-adv-x="544" d="M-49 1139l184 295h277l190 -295h-188l-142 166l-135 -166h-186zM115 0v989h315v-989h-315z" />
<glyph unicode="&#xef;" horiz-adv-x="544" d="M-109 1274q0 68 47.5 115t114.5 47t113.5 -47t46.5 -115t-46.5 -114t-113.5 -46q-68 0 -115 46.5t-47 113.5zM115 0v989h315v-989h-315zM330 1274q0 68 47 115t115 47q66 0 113.5 -47.5t47.5 -114.5t-47.5 -113.5t-113.5 -46.5q-68 0 -115 46.5t-47 113.5z" />
<glyph unicode="&#xf0;" horiz-adv-x="1179" d="M49 451q0 137 58 245.5t156.5 167t219.5 58.5q212 0 328 -193q-56 152 -317 336l-304 -135l-57 141l211 92q-69 44 -113 68l170 250q135 -80 265 -176l204 90l60 -135l-137 -62q335 -304 335 -676q0 -249 -144 -398t-396 -149q-242 0 -390.5 132.5t-148.5 343.5zM375 451 q0 -86 56.5 -141.5t156.5 -55.5q101 0 159 55.5t58 141.5q0 85 -58 139.5t-159 54.5q-100 0 -156.5 -54.5t-56.5 -139.5z" />
<glyph unicode="&#xf1;" horiz-adv-x="1214" d="M115 0v989h315v-121q51 61 139.5 103.5t202.5 42.5q163 0 245.5 -85.5t82.5 -228.5v-700h-316v571q0 164 -161 164q-114 0 -193 -96v-639h-315zM266 1147q0 274 232 274q36 0 69 -12.5t47 -23t41 -33.5q18 -17 25 -23t21 -13t28 -7q27 0 44.5 25t17.5 75h159 q0 -135 -58.5 -204.5t-172.5 -69.5q-36 0 -69 12.5t-47.5 23.5t-41.5 33q-18 17 -25 23t-21 13t-28 7q-27 0 -44 -25t-17 -75h-160z" />
<glyph unicode="&#xf2;" horiz-adv-x="1179" d="M49 496q0 105 37.5 199t105.5 165t170.5 112.5t225.5 41.5q165 0 289.5 -72t187.5 -188.5t63 -257.5t-63 -258.5t-187.5 -190t-289.5 -72.5q-163 0 -287.5 72.5t-188 190t-63.5 258.5zM160 1434h278l260 -295h-213zM375 496q0 -104 57 -173t156 -69q101 0 159 69t58 173 q0 102 -58 170.5t-159 68.5q-99 0 -156 -68.5t-57 -170.5z" />
<glyph unicode="&#xf3;" horiz-adv-x="1179" d="M49 496q0 105 37.5 199t105.5 165t170.5 112.5t225.5 41.5q165 0 289.5 -72t187.5 -188.5t63 -257.5t-63 -258.5t-187.5 -190t-289.5 -72.5q-163 0 -287.5 72.5t-188 190t-63.5 258.5zM375 496q0 -104 57 -173t156 -69q101 0 159 69t58 173q0 102 -58 170.5t-159 68.5 q-99 0 -156 -68.5t-57 -170.5zM473 1139l260 295h279l-326 -295h-213z" />
<glyph unicode="&#xf4;" horiz-adv-x="1179" d="M49 496q0 105 37.5 199t105.5 165t170.5 112.5t225.5 41.5q165 0 289.5 -72t187.5 -188.5t63 -257.5t-63 -258.5t-187.5 -190t-289.5 -72.5q-163 0 -287.5 72.5t-188 190t-63.5 258.5zM266 1139l185 295h276l191 -295h-189l-141 166l-135 -166h-187zM375 496 q0 -104 57 -173t156 -69q101 0 159 69t58 173q0 102 -58 170.5t-159 68.5q-99 0 -156 -68.5t-57 -170.5z" />
<glyph unicode="&#xf5;" horiz-adv-x="1179" d="M49 496q0 105 37.5 199t105.5 165t170.5 112.5t225.5 41.5q165 0 289.5 -72t187.5 -188.5t63 -257.5t-63 -258.5t-187.5 -190t-289.5 -72.5q-163 0 -287.5 72.5t-188 190t-63.5 258.5zM248 1147q0 274 231 274q36 0 69 -12.5t47.5 -23.5t41.5 -33q18 -17 25 -23t21 -13 t28 -7q27 0 44 25t17 75h160q0 -135 -59 -204.5t-173 -69.5q-36 0 -69 12.5t-47 23t-41 33.5q-18 17 -25 23t-21 13t-28 7q-27 0 -44 -25t-17 -75h-160zM375 496q0 -104 57 -173t156 -69q101 0 159 69t58 173q0 102 -58 170.5t-159 68.5q-99 0 -156 -68.5t-57 -170.5z" />
<glyph unicode="&#xf6;" horiz-adv-x="1179" d="M49 496q0 105 37.5 199t105.5 165t170.5 112.5t225.5 41.5q165 0 289.5 -72t187.5 -188.5t63 -257.5t-63 -258.5t-187.5 -190t-289.5 -72.5q-163 0 -287.5 72.5t-188 190t-63.5 258.5zM209 1274q0 68 47.5 115t114.5 47t113 -47t46 -115t-46 -114t-113 -46 q-68 0 -115 46.5t-47 113.5zM375 496q0 -104 57 -173t156 -69q101 0 159 69t58 173q0 102 -58 170.5t-159 68.5q-99 0 -156 -68.5t-57 -170.5zM647 1274q0 68 47.5 115t114.5 47q66 0 114 -47.5t48 -114.5t-47.5 -113.5t-114.5 -46.5q-68 0 -115 46.5t-47 113.5z" />
<glyph unicode="&#xf7;" horiz-adv-x="1046" d="M59 596v188h928v-188h-928zM383 334q0 59 40.5 100t98.5 41q59 0 100.5 -41.5t41.5 -99.5q0 -57 -42 -98t-100 -41t-98.5 41t-40.5 98zM383 1044q0 59 40.5 99.5t98.5 40.5q59 0 100.5 -41t41.5 -99t-41.5 -99.5t-100.5 -41.5q-58 0 -98.5 41t-40.5 100z" />
<glyph unicode="&#xf8;" horiz-adv-x="1179" d="M49 496q0 105 37.5 199t105.5 165t170.5 112.5t225.5 41.5q140 0 258 -56l94 129l107 -75l-91 -125q83 -72 127.5 -173.5t44.5 -217.5q0 -141 -63 -258.5t-187.5 -190t-289.5 -72.5q-139 0 -250 54l-90 -127l-109 78l86 120q-84 72 -130 175.5t-46 220.5zM375 496 q0 -83 35 -142l264 365q-40 16 -86 16q-99 0 -156 -68.5t-57 -170.5zM510 266q38 -12 78 -12q101 0 159 69t58 173q0 79 -33 135z" />
<glyph unicode="&#xf9;" horiz-adv-x="1212" d="M115 285v704h315v-575q0 -86 42 -123t122 -37q112 0 188 96v639h316v-989h-316v119q-53 -61 -140.5 -102.5t-201.5 -41.5q-163 0 -244 83.5t-81 226.5zM178 1434h279l260 -295h-213z" />
<glyph unicode="&#xfa;" horiz-adv-x="1212" d="M115 285v704h315v-575q0 -86 42 -123t122 -37q112 0 188 96v639h316v-989h-316v119q-53 -61 -140.5 -102.5t-201.5 -41.5q-163 0 -244 83.5t-81 226.5zM492 1139l260 295h278l-325 -295h-213z" />
<glyph unicode="&#xfb;" horiz-adv-x="1212" d="M115 285v704h315v-575q0 -86 42 -123t122 -37q112 0 188 96v639h316v-989h-316v119q-53 -61 -140.5 -102.5t-201.5 -41.5q-163 0 -244 83.5t-81 226.5zM285 1139l184 295h276l191 -295h-188l-142 166l-135 -166h-186z" />
<glyph unicode="&#xfc;" horiz-adv-x="1212" d="M115 285v704h315v-575q0 -86 42 -123t122 -37q112 0 188 96v639h316v-989h-316v119q-53 -61 -140.5 -102.5t-201.5 -41.5q-163 0 -244 83.5t-81 226.5zM225 1274q0 68 47.5 115t114.5 47t113.5 -47t46.5 -115t-46.5 -114t-113.5 -46q-68 0 -115 46.5t-47 113.5zM664 1274 q0 68 47 115t114 47q66 0 114 -47.5t48 -114.5t-47.5 -113.5t-114.5 -46.5q-68 0 -114.5 46.5t-46.5 113.5z" />
<glyph unicode="&#xfd;" horiz-adv-x="1073" d="M-20 989h331l224 -627l225 627h334l-447 -1130q-29 -76 -71.5 -128t-98 -79.5t-114 -39t-134.5 -13.5q-82 0 -135 16l45 281q36 -19 78 -19q112 0 133 55l23 54zM420 1139l260 295h278l-325 -295h-213z" />
<glyph unicode="&#xfe;" horiz-adv-x="1208" d="M115 -377v1743h315v-492q116 140 293 140q192 0 313 -137t121 -381q0 -245 -121 -383t-313 -138q-174 0 -293 142v-494h-315zM430 344q29 -38 83 -64t105 -26q94 0 156 66t62 176q0 108 -62 173.5t-156 65.5q-52 0 -105.5 -25.5t-82.5 -64.5v-301z" />
<glyph unicode="&#xff;" horiz-adv-x="1073" d="M-20 989h331l224 -627l225 627h334l-447 -1130q-29 -76 -71.5 -128t-98 -79.5t-114 -39t-134.5 -13.5q-82 0 -135 16l45 281q36 -19 78 -19q112 0 133 55l23 54zM156 1274q0 68 47 115t114 47t113.5 -47t46.5 -115t-46.5 -114t-113.5 -46q-68 0 -114.5 46.5t-46.5 113.5z M594 1274q0 68 47 115t115 47q66 0 114 -47.5t48 -114.5t-47.5 -113.5t-114.5 -46.5q-68 0 -115 46.5t-47 113.5z" />
<glyph unicode="&#x152;" horiz-adv-x="2197" d="M53 682q0 155 52.5 287t144.5 223t220 142.5t275 51.5q104 0 208.5 -35.5t168.5 -101.5v117h1002v-297h-649v-227h634v-299h-634v-246h649v-297h-1002v117q-64 -69 -168 -105.5t-209 -36.5q-197 0 -354.5 88.5t-247.5 250.5t-90 368zM412 682q0 -171 104.5 -283 t280.5 -112q109 0 195 50.5t130 141.5v408q-44 90 -129.5 139t-195.5 49q-176 0 -280.5 -111t-104.5 -282z" />
<glyph unicode="&#x153;" horiz-adv-x="1875" d="M49 496q0 105 37.5 199t105.5 165t170.5 112.5t225.5 41.5q67 0 125.5 -16.5t105.5 -47t79 -58.5t67 -67q150 189 366 189q222 0 363 -151t141 -400v-68h-705q21 -74 85.5 -125t170.5 -51q64 0 128 22t106 60l139 -195q-72 -64 -184.5 -97.5t-231.5 -33.5 q-71 0 -130.5 15.5t-106.5 46t-77 58t-66 67.5q-157 -187 -375 -187q-163 0 -287.5 72.5t-188 190t-63.5 258.5zM375 496q0 -111 59 -177.5t154 -66.5q98 0 157.5 66t59.5 178q0 109 -59.5 174t-157.5 65q-95 0 -154 -65t-59 -174zM1128 600h406q-3 29 -15.5 57t-35 55 t-63 43.5t-91.5 16.5q-93 0 -142.5 -52.5t-58.5 -119.5z" />
<glyph unicode="&#x178;" horiz-adv-x="1341" d="M-23 1366h398l297 -504l293 504h399l-516 -815v-551h-352v551zM291 1616q0 68 47.5 115t114.5 47t113 -47t46 -115t-46 -114t-113 -46q-68 0 -115 46.5t-47 113.5zM729 1616q0 68 47.5 115t114.5 47q66 0 114 -47.5t48 -114.5t-47.5 -113.5t-114.5 -46.5q-68 0 -115 46.5 t-47 113.5z" />
<glyph unicode="&#x2c6;" horiz-adv-x="651" d="M0 1139l184 295h277l190 -295h-188l-141 166l-136 -166h-186z" />
<glyph unicode="&#x2dc;" horiz-adv-x="684" d="M0 1147q0 274 231 274q36 0 69 -12.5t47.5 -23.5t41.5 -33q18 -17 25 -23t21 -13t28 -7q27 0 44 25t17 75h160q0 -135 -58.5 -204.5t-172.5 -69.5q-36 0 -69 12.5t-47.5 23.5t-41.5 33q-18 17 -25 23t-21 13t-28 7q-27 0 -44 -25t-17 -75h-160z" />
<glyph unicode="&#x2000;" horiz-adv-x="931" />
<glyph unicode="&#x2001;" horiz-adv-x="1862" />
<glyph unicode="&#x2002;" horiz-adv-x="931" />
<glyph unicode="&#x2003;" horiz-adv-x="1862" />
<glyph unicode="&#x2004;" horiz-adv-x="620" />
<glyph unicode="&#x2005;" horiz-adv-x="465" />
<glyph unicode="&#x2006;" horiz-adv-x="310" />
<glyph unicode="&#x2007;" horiz-adv-x="310" />
<glyph unicode="&#x2008;" horiz-adv-x="232" />
<glyph unicode="&#x2009;" horiz-adv-x="372" />
<glyph unicode="&#x200a;" horiz-adv-x="103" />
<glyph unicode="&#x2010;" horiz-adv-x="614" d="M61 365v264h492v-264h-492z" />
<glyph unicode="&#x2011;" horiz-adv-x="614" d="M61 365v264h492v-264h-492z" />
<glyph unicode="&#x2012;" horiz-adv-x="614" d="M61 365v264h492v-264h-492z" />
<glyph unicode="&#x2013;" horiz-adv-x="1214" d="M61 365v264h1092v-264h-1092z" />
<glyph unicode="&#x2014;" horiz-adv-x="1705" d="M61 365v264h1584v-264h-1584z" />
<glyph unicode="&#x2018;" horiz-adv-x="548" d="M70 973q0 123 61.5 230.5t171.5 185.5l131 -107q-51 -26 -103 -83.5t-69 -111.5q28 7 47 7q67 0 112.5 -47t45.5 -121q0 -78 -55.5 -134.5t-130.5 -56.5q-87 0 -149 65t-62 173z" />
<glyph unicode="&#x2019;" horiz-adv-x="548" d="M82 1198q0 78 55.5 133t132.5 55q87 0 148 -63.5t61 -173.5q0 -122 -62 -230t-171 -186l-131 107q52 26 104.5 83.5t69.5 112.5q-20 -8 -47 -8q-67 0 -113.5 47.5t-46.5 122.5z" />
<glyph unicode="&#x201a;" horiz-adv-x="548" d="M82 172q0 78 55.5 133t132.5 55q87 0 148 -63.5t61 -171.5q0 -124 -62 -231.5t-171 -184.5l-131 107q52 26 104.5 83t69.5 111q-30 -6 -47 -6q-67 0 -113.5 47t-46.5 121z" />
<glyph unicode="&#x201c;" horiz-adv-x="1009" d="M68 973q0 123 61.5 230.5t171.5 185.5l131 -107q-52 -26 -105 -84t-67 -111q28 7 47 7q66 0 112 -47t46 -121q0 -78 -56 -134.5t-133 -56.5q-87 0 -147.5 64.5t-60.5 173.5zM528 973q0 123 62 230.5t172 185.5l131 -107q-51 -26 -103 -83.5t-69 -111.5q28 7 47 7 q67 0 112.5 -47t45.5 -121q0 -78 -56 -134.5t-131 -56.5q-87 0 -149 65t-62 173z" />
<glyph unicode="&#x201d;" horiz-adv-x="1009" d="M82 1198q0 78 55.5 133t132.5 55q87 0 148 -63.5t61 -173.5q0 -122 -62 -230t-171 -186l-131 107q52 26 104.5 83.5t69.5 112.5q-20 -8 -47 -8q-67 0 -113.5 47.5t-46.5 122.5zM545 1198q0 78 55.5 133t130.5 55q88 0 149.5 -64t61.5 -173q0 -122 -62 -230t-171 -186 l-131 107q52 26 103.5 83.5t68.5 112.5q-16 -8 -48 -8q-67 0 -112 47.5t-45 122.5z" />
<glyph unicode="&#x201e;" horiz-adv-x="1011" d="M82 172q0 78 55.5 133t132.5 55q87 0 148 -63.5t61 -171.5q0 -124 -62 -231.5t-171 -184.5l-131 107q52 26 104.5 83t69.5 111q-30 -6 -47 -6q-67 0 -113.5 47t-46.5 121zM545 172q0 78 55.5 133t130.5 55q88 0 149.5 -63.5t61.5 -171.5q0 -124 -62 -231.5t-171 -184.5 l-131 107q51 26 103 83t69 111q-24 -6 -48 -6q-67 0 -112 47t-45 121z" />
<glyph unicode="&#x2022;" horiz-adv-x="733" d="M115 496q0 106 74 180t180 74t180 -74t74 -180q0 -104 -74 -178t-180 -74t-180 74t-74 178z" />
<glyph unicode="&#x2026;" horiz-adv-x="1652" d="M84 168q0 78 56 135t134 57t134.5 -57t56.5 -135q0 -77 -56.5 -134t-134.5 -57t-134 57t-56 134zM635 168q0 78 56 135t134 57t134.5 -57t56.5 -135q0 -77 -56.5 -134t-134.5 -57t-134 57t-56 134zM1186 168q0 78 56 135t134 57t135.5 -57t57.5 -135q0 -77 -57.5 -134 t-135.5 -57t-134 57t-56 134z" />
<glyph unicode="&#x202f;" horiz-adv-x="372" />
<glyph unicode="&#x2039;" horiz-adv-x="735" d="M61 498l328 362h285l-328 -362l328 -369h-285z" />
<glyph unicode="&#x203a;" horiz-adv-x="735" d="M61 129l328 369l-328 362h285l328 -362l-328 -369h-285z" />
<glyph unicode="&#x205f;" horiz-adv-x="465" />
<glyph unicode="&#x20ac;" horiz-adv-x="1464" d="M35 455v174h69q-2 18 -2 53q0 39 2 57h-69v174h104q71 218 261 347t442 129q118 0 218 -31t171.5 -86t120.5 -116t86 -134l-303 -143q-37 85 -117.5 141.5t-175.5 56.5q-98 0 -178.5 -44t-128.5 -120h430v-174h-500q-4 -36 -4 -57q0 -17 4 -53h500v-174h-433 q46 -78 128 -123t182 -45q95 0 175.5 56.5t117.5 141.5l303 -143q-28 -57 -64 -106.5t-89 -98.5t-115.5 -84t-147.5 -56.5t-180 -21.5q-254 0 -445 130t-260 350h-102z" />
<glyph unicode="&#x2122;" horiz-adv-x="929" d="M35 1313v53h311v-53h-127v-398h-57v398h-127zM420 915v451h88l131 -328l131 328h88v-451h-57v373l-154 -373h-16l-154 373v-373h-57z" />
<glyph unicode="&#x25fc;" horiz-adv-x="993" d="M0 0v993h993v-993h-993z" />
</font>
</defs>
</svg>
