<?xml version="1.0" standalone="no"?>
<!DOCTYPE svg PUBLIC "-//W3C//DTD SVG 1.1//EN" "http://www.w3.org/Graphics/SVG/1.1/DTD/svg11.dtd" >
<svg xmlns="http://www.w3.org/2000/svg" xmlns:xlink="http://www.w3.org/1999/xlink" version="1.1">
<metadata></metadata>
<defs>
<font id="proxima_novamedium" horiz-adv-x="1566" >
<font-face units-per-em="2048" ascent="1618" descent="-430" />
<missing-glyph horiz-adv-x="528" />
<glyph unicode="&#xfb01;" horiz-adv-x="1083" d="M844 1155q-48 0 -83.5 34t-35.5 83t35.5 84t83.5 35q50 0 84.5 -34.5t34.5 -84.5q0 -49 -34.5 -83t-84.5 -34zM377 827v-827h-184v827h-164v162h164v66q0 156 83 243.5t218 87.5q99 0 161 -36l-43 -138q-38 23 -88 23q-70 0 -108.5 -46t-38.5 -134v-66h201v-162h-201z M938 0h-184v989h184v-989z" />
<glyph unicode="&#xfb02;" horiz-adv-x="1083" d="M578 827h-201v-827h-184v827h-164v162h164v66q0 156 83 243.5t218 87.5q99 0 161 -36l-43 -138q-38 23 -88 23q-70 0 -108.5 -46t-38.5 -134v-66h201v-162zM938 0h-184v1366h184v-1366z" />
<glyph unicode="&#xfb03;" horiz-adv-x="1687" d="M1448 1155q-48 0 -83.5 34t-35.5 83t35.5 84t83.5 35q50 0 84.5 -34.5t34.5 -84.5q0 -49 -34.5 -83t-84.5 -34zM377 827v-827h-184v827h-164v162h164v66q0 156 83 243.5t218 87.5q99 0 161 -36l-43 -138q-41 23 -88 23q-70 0 -108.5 -46t-38.5 -134v-66h201v-162h-201z M1184 989v-162h-201v-827h-184v827h-164v162h164v66q0 156 83 243.5t218 87.5q100 0 162 -36l-43 -138q-38 23 -89 23q-70 0 -108.5 -46t-38.5 -134v-66h201zM1542 0h-184v989h184v-989z" />
<glyph unicode="&#xfb04;" horiz-adv-x="1687" d="M578 827h-201v-827h-184v827h-164v162h164v66q0 156 83 243.5t218 87.5q99 0 161 -36l-43 -138q-41 23 -88 23q-70 0 -108.5 -46t-38.5 -134v-66h201v-162zM983 989h201v-162h-201v-827h-184v827h-164v162h164v66q0 156 83 243.5t218 87.5q100 0 162 -36l-43 -138 q-38 23 -89 23q-70 0 -108.5 -46t-38.5 -134v-66zM1542 0h-184v1366h184v-1366z" />
<glyph horiz-adv-x="0" />
<glyph horiz-adv-x="682" />
<glyph horiz-adv-x="0" />
<glyph horiz-adv-x="0" />
<glyph unicode="&#xd;" horiz-adv-x="0" />
<glyph unicode=" "  horiz-adv-x="528" />
<glyph unicode="&#x09;" horiz-adv-x="528" />
<glyph unicode="&#xa0;" horiz-adv-x="528" />
<glyph unicode="!" horiz-adv-x="487" d="M322 399h-158l-35 967h227zM117 106q0 53 36.5 90t88.5 37q53 0 91 -37.5t38 -89.5q0 -51 -38.5 -88.5t-90.5 -37.5t-88.5 37.5t-36.5 88.5z" />
<glyph unicode="&#x22;" horiz-adv-x="739" d="M256 821h-88q-64 426 -64 459q0 43 31.5 74.5t75.5 31.5t76 -31.5t32 -74.5q0 -15 -15.5 -129.5t-31.5 -222.5zM571 821h-86q-63 426 -63 459q0 43 31.5 74.5t76.5 31.5q43 0 74 -31.5t31 -74.5q0 -15 -16 -129.5t-32 -222.5z" />
<glyph unicode="#" horiz-adv-x="1224" d="M637 0h-145l124 362h-219l-121 -362h-145l121 362h-211l41 125h215l127 390h-215l37 122h221l121 367h145l-121 -367h215l121 367h146l-123 -367h213l-37 -122h-217l-131 -390h221l-37 -125h-225zM655 487l129 390h-215l-129 -390h215z" />
<glyph unicode="$" horiz-adv-x="1226" d="M1135 387q0 -76 -25.5 -143.5t-76.5 -124t-137.5 -93.5t-199.5 -46v-185h-145v182q-296 20 -471 216l117 157q147 -162 354 -186v446q-51 13 -90 24.5t-86 30t-81 38.5t-68 50t-55 64t-34.5 80t-13.5 100q0 158 119 266t309 121v189h145v-191q249 -23 408 -186l-121 -152 q-116 122 -287 150v-399q53 -14 92 -26t87.5 -32t83 -41t70 -52t57.5 -67t35.5 -84.5t13.5 -105.5zM334 1012q0 -68 56 -108t161 -70v368q-99 -8 -158 -59.5t-59 -130.5zM696 571v-407q116 12 173 71.5t57 133.5q0 80 -58.5 124t-171.5 78z" />
<glyph unicode="%" horiz-adv-x="1513" d="M61 1047q0 147 92 243t240 96q149 0 242.5 -96.5t93.5 -242.5q0 -144 -93.5 -240t-242.5 -96q-147 0 -239.5 95.5t-92.5 240.5zM387 0h-123l873 1366h125zM588 1047q0 96 -54.5 157.5t-140.5 61.5q-84 0 -138 -61.5t-54 -157.5q0 -93 54 -155.5t138 -62.5q85 0 140 62.5 t55 155.5zM784 311q0 146 93 243t241 97t241 -97t93 -243q0 -144 -93.5 -240t-240.5 -96t-240.5 96t-93.5 240zM1313 311q0 96 -54.5 157.5t-140.5 61.5t-140 -61.5t-54 -157.5q0 -94 54 -155.5t140 -61.5t140.5 61.5t54.5 155.5z" />
<glyph unicode="&#x26;" horiz-adv-x="1314" d="M1004 264q120 -126 264 -264h-246q-37 33 -135 131q-170 -156 -389 -156q-123 0 -219 42t-154.5 130.5t-58.5 212.5q0 77 23.5 140.5t68 112t93 83t114.5 68.5q-101 178 -101 303q0 136 102.5 227.5t254.5 91.5q141 0 232 -73.5t91 -200.5q0 -38 -7 -72t-23 -63.5 t-32.5 -53t-45.5 -47.5t-51 -41t-59.5 -38t-60.5 -33t-65 -33q49 -67 145 -182q47 -55 150 -170q88 133 141 299l154 -70q-92 -214 -186 -344zM453 1063q0 -92 75 -219q60 30 97.5 52.5t76.5 55t57.5 70t18.5 82.5q0 67 -41.5 105t-107.5 38q-75 0 -125.5 -51.5 t-50.5 -132.5zM518 125q142 0 262 117q-128 135 -178 196q-92 110 -162 207q-84 -53 -131 -117t-47 -153q0 -115 75.5 -182.5t180.5 -67.5z" />
<glyph unicode="'" horiz-adv-x="421" d="M256 821h-88q-64 426 -64 459q0 43 31.5 74.5t75.5 31.5t76 -31.5t32 -74.5q0 -15 -15.5 -129.5t-31.5 -222.5z" />
<glyph unicode="(" horiz-adv-x="536" d="M500 -322l-113 -86q-141 184 -220 421.5t-79 484.5q0 246 78.5 483t220.5 422l113 -84q-108 -209 -159.5 -397t-51.5 -424t52 -424.5t159 -395.5z" />
<glyph unicode=")" horiz-adv-x="536" d="M248 498q0 236 -52 424.5t-161 396.5l112 84q143 -185 222.5 -422t79.5 -483q0 -247 -79.5 -484.5t-222.5 -421.5l-112 86q109 206 161 394.5t52 425.5z" />
<glyph unicode="*" horiz-adv-x="702" d="M403 784h-104l10 232l-194 -127l-52 90l207 104l-207 107l52 90l194 -125l-10 231h104l-12 -231l195 125l51 -90l-205 -107l205 -104l-51 -90l-195 127z" />
<glyph unicode="+" horiz-adv-x="1024" d="M965 629h-385v-430h-136v430h-385v123h385v415h136v-415h385v-123z" />
<glyph unicode="," horiz-adv-x="487" d="M203 -266l-86 71q51 31 91.5 86t47.5 105q-1 0 -13 -2t-18 -2q-47 0 -78.5 33t-31.5 84q0 52 36 88t89 36q60 0 101.5 -45.5t41.5 -124.5q0 -97 -49.5 -184t-130.5 -145z" />
<glyph unicode="-" horiz-adv-x="614" d="M553 416h-492v159h492v-159z" />
<glyph unicode="." horiz-adv-x="487" d="M115 106q0 52 37.5 89.5t89.5 37.5q53 0 91 -37.5t38 -89.5t-38.5 -90.5t-90.5 -38.5t-89.5 38t-37.5 91z" />
<glyph unicode="/" horiz-adv-x="626" d="M141 -41h-141l485 1448h142z" />
<glyph unicode="0" horiz-adv-x="1257" d="M94 682q0 104 19 203t61 190.5t102.5 160t151.5 109.5t201 41t200.5 -41t151.5 -109.5t103 -160t60.5 -190.5t18.5 -203t-18.5 -203.5t-60.5 -191.5t-103 -160.5t-151.5 -110t-200.5 -41.5t-201 41.5t-151.5 110t-102.5 160.5t-61 191.5t-19 203.5zM954 682 q0 105 -17.5 194.5t-54 165t-101.5 119t-152 43.5t-152.5 -43.5t-102 -118.5t-54 -165t-17.5 -195q0 -83 10.5 -157t35 -142t61 -117.5t93 -78.5t126.5 -29q87 0 152 43.5t101.5 119.5t54 166t17.5 195z" />
<glyph unicode="1" horiz-adv-x="735" d="M584 0h-205v1098l-221 -232l-121 125l366 375h181v-1366z" />
<glyph unicode="2" horiz-adv-x="1210" d="M1069 0h-963v162q141 108 234.5 182.5t185.5 154t147 138t99.5 118.5t63 113t18.5 107q0 112 -78 170.5t-188 58.5q-230 0 -371 -168l-121 133q83 104 214 160.5t276 56.5q94 0 178.5 -26.5t152 -76.5t107 -129.5t39.5 -178.5q0 -78 -31 -158t-82 -153t-135 -157 t-172 -158.5t-211 -168.5h637v-180z" />
<glyph unicode="3" horiz-adv-x="1157" d="M53 199l115 133q66 -80 167 -127t214 -47q140 0 220.5 62.5t80.5 170.5q0 215 -322 215q-127 0 -147 -2v187q35 -3 147 -3q133 0 217 51t84 152t-82.5 157t-209.5 56q-203 0 -357 -157l-108 127q82 97 204.5 154.5t278.5 57.5q213 0 346 -98.5t133 -267.5q0 -68 -27 -125 t-71.5 -95t-94.5 -61.5t-104 -33.5q51 -5 104.5 -28t102.5 -62.5t80 -103t31 -140.5q0 -175 -136 -285.5t-364 -110.5q-170 0 -300.5 62.5t-201.5 161.5z" />
<glyph unicode="4" horiz-adv-x="1165" d="M915 0h-204v328h-650v168l574 870h280v-858h189v-180h-189v-328zM711 508v672l-447 -672h447z" />
<glyph unicode="5" horiz-adv-x="1218" d="M125 190l121 140q139 -172 372 -172q132 0 214.5 76t82.5 190q0 123 -80 195.5t-212 72.5q-179 0 -308 -123l-147 47v750h864v-180h-659v-436q53 53 135.5 86.5t177.5 33.5q87 0 165 -29.5t138.5 -83.5t96.5 -138.5t36 -186.5q0 -208 -140.5 -332.5t-360.5 -124.5 q-325 0 -496 215z" />
<glyph unicode="6" horiz-adv-x="1220" d="M94 680q0 146 36.5 272.5t106.5 224t182.5 153.5t254.5 56q238 0 385 -157l-101 -156q-57 65 -122.5 98t-161.5 33q-90 0 -162.5 -41t-117.5 -110.5t-69 -157t-24 -184.5q0 -31 2 -45q50 77 154 138.5t221 61.5q93 0 174.5 -28t143.5 -81.5t98 -138t36 -190.5 q0 -92 -35 -174.5t-97.5 -144.5t-155.5 -98t-203 -36q-114 0 -206.5 37.5t-154.5 102.5t-104 155t-61 192.5t-19 217.5zM924 422q0 130 -84 199t-213 69q-94 0 -180.5 -49.5t-141.5 -132.5q6 -65 26.5 -123t57 -111t98.5 -84.5t142 -31.5q71 0 129 24t93 63t54 84.5t19 92.5 z" />
<glyph unicode="7" horiz-adv-x="1071" d="M473 0h-225l532 1186h-721v180h959v-141z" />
<glyph unicode="8" horiz-adv-x="1204" d="M96 348q0 126 90 220t226 137q-129 39 -211 120.5t-82 204.5q0 89 42 159.5t112 112t154.5 63t176.5 21.5q90 0 173.5 -21.5t154 -63t113 -112t42.5 -159.5q0 -123 -82 -204.5t-212 -120.5q135 -43 225 -136.5t90 -220.5q0 -115 -70 -201.5t-183 -129t-251 -42.5 q-140 0 -254 42.5t-184 128.5t-70 202zM881 999q0 94 -79 149.5t-198 55.5q-123 0 -200.5 -55t-77.5 -150q0 -41 21.5 -76t52 -57.5t71 -40t72 -26t61.5 -13.5q30 5 61.5 13.5t72 26t71 40t51.5 57.5t21 76zM903 373q0 45 -23.5 85t-58 66t-77 45.5t-77.5 29.5t-63 13 q-38 -4 -84.5 -19.5t-97.5 -43t-85 -74t-34 -102.5q0 -97 87 -156t214 -59q123 0 211 59.5t88 155.5z" />
<glyph unicode="9" horiz-adv-x="1220" d="M162 135l98 154q57 -63 124 -96t163 -33q76 0 139 28t105.5 75t72 110.5t43 133.5t13.5 144v47q-54 -78 -158 -140t-219 -62q-93 0 -175 28.5t-144.5 82t-99 138.5t-36.5 191q0 91 35 173.5t97.5 144.5t156 98.5t203.5 36.5q115 0 207.5 -37.5t155 -102.5t104.5 -155.5 t60.5 -193t18.5 -218.5t-22.5 -220t-69.5 -193t-114.5 -153.5t-163 -101.5t-209.5 -37q-237 0 -385 158zM913 856q-5 63 -25 122t-56.5 111.5t-99 84.5t-142.5 32q-136 0 -214.5 -81.5t-78.5 -182.5q0 -130 84 -199t213 -69q94 0 180 49.5t139 132.5z" />
<glyph unicode=":" horiz-adv-x="487" d="M115 874q0 53 37.5 91.5t89.5 38.5t90.5 -38.5t38.5 -91.5q0 -51 -38.5 -88.5t-90.5 -37.5t-89.5 37.5t-37.5 88.5zM115 106q0 52 37.5 89.5t89.5 37.5q53 0 91 -37.5t38 -89.5t-38.5 -90.5t-90.5 -38.5t-89.5 38t-37.5 91z" />
<glyph unicode=";" horiz-adv-x="487" d="M242 748q-52 0 -89.5 37.5t-37.5 88.5q0 53 37.5 91.5t89.5 38.5t90.5 -38.5t38.5 -91.5q0 -51 -38.5 -88.5t-90.5 -37.5zM203 -266l-86 71q51 31 91.5 86t47.5 105q-1 0 -13 -2t-18 -2q-47 0 -78.5 33t-31.5 84q0 52 36 88t89 36q60 0 101.5 -45.5t41.5 -124.5 q0 -97 -49.5 -184t-130.5 -145z" />
<glyph unicode="&#x3c;" horiz-adv-x="1024" d="M965 184l-906 434v134l906 436v-148l-760 -356l760 -354v-146z" />
<glyph unicode="=" horiz-adv-x="1024" d="M965 819h-906v123h906v-123zM965 426h-906v123h906v-123z" />
<glyph unicode="&#x3e;" horiz-adv-x="1024" d="M965 618l-906 -434v146l758 354l-758 356v148l906 -436v-134z" />
<glyph unicode="?" horiz-adv-x="942" d="M326 561q0 40 12 75.5t27 60t45.5 53t49.5 43t56 41.5q34 24 49 34.5t41 33t37.5 39.5t21 42.5t9.5 52.5q0 72 -56 120t-161 48q-186 0 -305 -155l-119 131q76 98 190 152t254 54q186 0 297 -90.5t111 -228.5q0 -49 -14 -93t-32.5 -74t-53 -63t-58 -51t-65.5 -47 q-38 -27 -49.5 -36t-39.5 -33t-38.5 -39t-20.5 -39t-10 -49t13.5 -51.5t35.5 -45.5l-152 -57q-75 72 -75 172zM332 106q0 52 37 89.5t90 37.5t91 -37.5t38 -89.5t-38 -90.5t-91 -38.5q-52 0 -89.5 38t-37.5 91z" />
<glyph unicode="@" horiz-adv-x="1603" d="M72 500q0 215 114 402t301.5 296t397.5 109q189 0 337.5 -87.5t228 -233.5t79.5 -322q0 -118 -33 -214t-87 -154.5t-118.5 -90t-130.5 -31.5q-84 0 -134 47t-56 115l-2 12q-56 -78 -140.5 -126t-175.5 -48q-144 0 -229.5 93t-85.5 243q0 103 40.5 198.5t107 163t153 108 t176.5 40.5q92 0 159.5 -42.5t100.5 -109.5l25 121h168l-115 -538q-4 -24 -4 -45q0 -49 25.5 -76t64.5 -27q33 0 67.5 19.5t68.5 59.5t55.5 113.5t21.5 168.5q0 251 -158 410t-417 159q-144 0 -279.5 -60.5t-234.5 -160t-158.5 -233.5t-59.5 -275q0 -162 75 -294t209 -207 t300 -75q200 0 379 113l39 -55q-200 -129 -426 -129q-183 0 -332 85t-233 232t-84 326zM991 477l58 273q-21 53 -72 95t-127 42q-141 0 -239.5 -111.5t-98.5 -253.5q0 -96 52.5 -155.5t144.5 -59.5q162 0 282 170z" />
<glyph unicode="A" horiz-adv-x="1363" d="M1352 0h-226l-110 283h-670l-110 -283h-226l543 1366h256zM956 465l-276 723l-274 -723h550z" />
<glyph unicode="B" horiz-adv-x="1306" d="M809 0h-657v1366h641q179 0 282 -97.5t103 -250.5q0 -123 -69 -207t-169 -106q109 -17 186.5 -114.5t77.5 -221.5q0 -165 -105 -267t-290 -102zM356 1186v-400h398q100 0 156.5 55.5t56.5 143.5t-56.5 144.5t-156.5 56.5h-398zM356 606v-426h408q107 0 168 57.5t61 157.5 q0 90 -60 150.5t-169 60.5h-408z" />
<glyph unicode="C" horiz-adv-x="1390" d="M795 -25q-145 0 -273.5 52t-223 143.5t-149.5 224.5t-55 287t55 287t149.5 224.5t223 143.5t273.5 52q351 0 542 -289l-174 -92q-56 89 -153 143.5t-215 54.5q-209 0 -349.5 -148t-140.5 -376q0 -227 140.5 -375.5t349.5 -148.5q118 0 215 54.5t153 143.5l174 -92 q-197 -289 -542 -289z" />
<glyph unicode="D" horiz-adv-x="1443" d="M639 0h-487v1366h487q209 0 371.5 -89t250 -244.5t87.5 -350.5q0 -147 -51.5 -273t-143 -216.5t-224.5 -141.5t-290 -51zM356 1186v-1006h283q153 0 268 68.5t172.5 181.5t57.5 252q0 142 -56.5 255t-171 181t-270.5 68h-283z" />
<glyph unicode="E" horiz-adv-x="1173" d="M1069 0h-917v1366h917v-180h-713v-400h699v-180h-699v-426h713v-180z" />
<glyph unicode="F" horiz-adv-x="1138" d="M356 0h-204v1366h917v-180h-713v-400h699v-180h-699v-606z" />
<glyph unicode="G" horiz-adv-x="1464" d="M94 682q0 156 56 289.5t152 224.5t225.5 142t275.5 51q338 0 540 -271l-165 -96q-61 82 -160.5 133t-214.5 51q-215 0 -356.5 -147.5t-141.5 -376.5q0 -228 142 -377t356 -149q104 0 195.5 40.5t150.5 94.5v246h-438v180h643v-502q-102 -113 -242.5 -177.5t-308.5 -64.5 q-146 0 -275.5 51.5t-225.5 142.5t-152 225t-56 290z" />
<glyph unicode="H" horiz-adv-x="1468" d="M1317 0h-205v610h-756v-610h-204v1366h204v-573h756v573h205v-1366z" />
<glyph unicode="I" horiz-adv-x="509" d="M356 0h-204v1366h204v-1366z" />
<glyph unicode="J" horiz-adv-x="978" d="M20 125l99 156q106 -123 246 -123q118 0 187 72.5t69 193.5v942h204v-944q0 -89 -22 -162.5t-62 -126t-95.5 -88.5t-122.5 -53t-144 -17q-226 0 -359 150z" />
<glyph unicode="K" horiz-adv-x="1251" d="M1227 0h-254l-488 594l-129 -145v-449h-204v1366h204v-678l572 678h254l-564 -647z" />
<glyph unicode="L" horiz-adv-x="1050" d="M977 0h-825v1366h204v-1186h621v-180z" />
<glyph unicode="M" horiz-adv-x="1683" d="M1532 0h-205v1085l-442 -1085h-86l-443 1085v-1085h-204v1366h292l398 -981l397 981h293v-1366z" />
<glyph unicode="N" horiz-adv-x="1462" d="M1311 0h-199l-756 1049v-1049h-204v1366h210l744 -1024v1024h205v-1366z" />
<glyph unicode="O" d="M94 682q0 201 86 362t243.5 253t358.5 92t358.5 -92t243.5 -253t86 -362t-86 -362t-243.5 -253t-358.5 -92t-358.5 92t-243.5 253t-86 362zM1260 682q0 229 -132 376.5t-346 147.5q-216 0 -346.5 -147t-130.5 -377q0 -228 130.5 -376t346.5 -148q214 0 346 148.5 t132 375.5z" />
<glyph unicode="P" horiz-adv-x="1222" d="M356 0h-204v1366h575q203 0 319.5 -121t116.5 -299q0 -115 -50 -209.5t-150.5 -152.5t-235.5 -58h-371v-526zM952 946q0 107 -70.5 173.5t-181.5 66.5h-344v-479h344q111 0 181.5 66t70.5 173z" />
<glyph unicode="Q" d="M1470 682q0 -301 -184 -498l121 -133l-141 -121l-125 138q-161 -93 -359 -93q-201 0 -358.5 92t-243.5 253t-86 362t86 362t243.5 253t358.5 92t358.5 -92t243.5 -253t86 -362zM782 158q124 0 228 55l-183 201l144 121l180 -201q109 143 109 348q0 229 -132 376.5 t-346 147.5q-216 0 -346.5 -147t-130.5 -377q0 -228 130.5 -376t346.5 -148z" />
<glyph unicode="R" horiz-adv-x="1265" d="M1176 0h-238l-326 526h-256v-526h-204v1366h575q195 0 316.5 -115.5t121.5 -304.5q0 -89 -28.5 -162.5t-76.5 -121.5t-108 -77t-127 -38zM954 946q0 107 -71.5 173.5t-182.5 66.5h-344v-479h344q111 0 182.5 66.5t71.5 172.5z" />
<glyph unicode="S" horiz-adv-x="1208" d="M68 193l116 157q76 -84 186.5 -138t243.5 -54q152 0 225.5 63t73.5 148q0 30 -10 55.5t-24 44.5t-41.5 36.5t-50 28.5t-63.5 24t-66.5 20t-73.5 20q-184 48 -262 85q-180 86 -206 251q-5 31 -5 63q0 170 135 279.5t348 109.5q311 0 498 -190l-119 -152q-150 160 -395 160 q-114 0 -185 -53t-71 -139q0 -30 10.5 -54.5t35 -44t48 -33.5t67 -28.5t73 -22.5t83.5 -22q49 -13 76 -20.5t74 -22.5t75 -27.5t67.5 -33t63 -41t51 -50t42 -62t24.5 -74.5t10 -89q0 -83 -29.5 -155t-89.5 -130.5t-162 -92.5t-235 -34q-340 0 -538 218z" />
<glyph unicode="T" horiz-adv-x="1173" d="M690 0h-205v1186h-424v180h1051v-180h-422v-1186z" />
<glyph unicode="U" horiz-adv-x="1454" d="M152 535v831h206v-825q0 -178 96 -280.5t273 -102.5t272 102.5t95 280.5v825h206v-829q0 -262 -146 -412t-427 -150q-280 0 -427.5 150.5t-147.5 409.5z" />
<glyph unicode="V" horiz-adv-x="1363" d="M809 0h-256l-543 1366h234l436 -1143l438 1143h234z" />
<glyph unicode="W" horiz-adv-x="1828" d="M1417 0h-219l-285 1055l-282 -1055h-219l-392 1366h230l282 -1096l299 1096h166l297 -1096l283 1096h229z" />
<glyph unicode="X" horiz-adv-x="1343" d="M1327 0h-246l-409 557l-410 -557h-248l525 700l-494 666h248l379 -524l377 524h247l-489 -664z" />
<glyph unicode="Y" horiz-adv-x="1294" d="M750 0h-205v571l-535 795h236l401 -610l397 610h238l-532 -795v-571z" />
<glyph unicode="Z" horiz-adv-x="1202" d="M1106 0h-1012v168l733 1018h-733v180h998v-168l-734 -1018h748v-180z" />
<glyph unicode="[" horiz-adv-x="520" d="M485 -389h-399v1778h399v-132h-260v-1515h260v-131z" />
<glyph unicode="\" horiz-adv-x="626" d="M485 -41l-485 1448h141l486 -1448h-142z" />
<glyph unicode="]" horiz-adv-x="520" d="M434 -389h-399v131h260v1515h-260v132h399v-1778z" />
<glyph unicode="^" horiz-adv-x="888" d="M850 682h-143l-263 553l-260 -553h-145l338 684h137z" />
<glyph unicode="_" horiz-adv-x="1155" d="M1161 -213h-1167v131h1167v-131z" />
<glyph unicode="`" horiz-adv-x="477" d="M477 1139h-135l-342 295h182z" />
<glyph unicode="a" horiz-adv-x="1089" d="M942 0h-184v109q-122 -134 -324 -134q-63 0 -123 21.5t-110 61t-80.5 103.5t-30.5 142q0 81 30 145t80 102t110 57.5t124 19.5q211 0 324 -131v163q0 91 -67 144t-175 53q-166 0 -297 -131l-80 127q165 162 406 162q84 0 153.5 -19t125 -59t87 -108.5t31.5 -159.5v-668z M758 217v168q-40 54 -108 83.5t-146 29.5q-100 0 -164 -55t-64 -142t64 -142t164 -55q78 0 146 29.5t108 83.5z" />
<glyph unicode="b" horiz-adv-x="1183" d="M332 0h-185v1366h185v-520q59 80 143 124t180 44q195 0 318 -142.5t123 -377.5q0 -239 -122.5 -379t-318.5 -140q-97 0 -181.5 45t-141.5 121v-141zM332 702v-419q38 -61 114.5 -102.5t159.5 -41.5q136 0 217.5 99t81.5 256t-81.5 256.5t-217.5 99.5q-82 0 -159 -43 t-115 -105z" />
<glyph unicode="c" horiz-adv-x="1015" d="M86 496q0 225 141 371.5t363 146.5q240 0 371 -174l-123 -113q-86 123 -240 123q-144 0 -231.5 -99t-87.5 -255t87.5 -256.5t231.5 -100.5q152 0 240 123l123 -112q-131 -175 -371 -175q-222 0 -363 148t-141 373z" />
<glyph unicode="d" horiz-adv-x="1183" d="M1036 0h-184v141q-57 -76 -142.5 -121t-181.5 -45q-197 0 -319.5 140t-122.5 379q0 235 123 377.5t319 142.5q95 0 179.5 -44t144.5 -124v520h184v-1366zM852 283v422q-39 62 -115 103.5t-159 41.5q-136 0 -217.5 -99.5t-81.5 -256.5q0 -156 81.5 -255.5t217.5 -99.5 q83 0 159 41t115 103z" />
<glyph unicode="e" horiz-adv-x="1146" d="M86 496q0 142 63 260.5t177 188t256 69.5q218 0 349.5 -151.5t131.5 -383.5v-45h-782q11 -131 101 -219t234 -88q80 0 159.5 30.5t133.5 86.5l86 -121q-151 -148 -397 -148q-223 0 -367.5 145t-144.5 376zM582 862q-71 0 -129 -26.5t-94 -70.5t-56 -94.5t-24 -103.5h604 q-2 52 -20 102t-53 94.5t-94 71.5t-134 27z" />
<glyph unicode="f" horiz-adv-x="606" d="M578 827h-201v-827h-184v827h-164v162h164v66q0 156 83 243.5t218 87.5q99 0 161 -36l-43 -138q-41 23 -88 23q-70 0 -108.5 -46t-38.5 -134v-66h201v-162z" />
<glyph unicode="g" horiz-adv-x="1181" d="M139 -254l88 135q114 -131 318 -131q61 0 113.5 15.5t97 47.5t70.5 88.5t26 131.5v129q-60 -77 -145 -123.5t-181 -46.5q-196 0 -318 137t-122 375q0 234 122.5 372t317.5 138q96 0 181 -44t145 -124v143h184v-950q0 -99 -28 -176t-74 -126t-111 -80.5t-133 -44.5 t-145 -13q-130 0 -225 32.5t-181 114.5zM852 303v402q-39 62 -116 103.5t-158 41.5q-136 0 -217.5 -96t-81.5 -250q0 -155 81 -251.5t218 -96.5q81 0 158 42.5t116 104.5z" />
<glyph unicode="h" horiz-adv-x="1146" d="M999 0h-184v637q0 117 -54.5 165t-156.5 48q-82 0 -155.5 -41.5t-116.5 -101.5v-707h-185v1366h185v-516q55 67 149.5 115.5t200.5 48.5q317 0 317 -316v-698z" />
<glyph unicode="i" horiz-adv-x="477" d="M238 1155q-48 0 -83.5 34t-35.5 83t35.5 84t83.5 35q49 0 83.5 -34.5t34.5 -84.5q0 -49 -34 -83t-84 -34zM332 0h-185v989h185v-989z" />
<glyph unicode="j" horiz-adv-x="477" d="M238 1155q-48 0 -83.5 34t-35.5 83t35.5 84t83.5 35q49 0 83.5 -34.5t34.5 -84.5q0 -49 -34 -83t-84 -34zM147 989h185v-1067q0 -154 -79.5 -238.5t-229.5 -84.5q-64 0 -113 12l22 153q24 -8 68 -8q67 0 107 40.5t40 125.5v1067z" />
<glyph unicode="k" horiz-adv-x="1064" d="M1044 0h-233l-330 426l-149 -152v-274h-185v1366h185v-879l477 502h231l-426 -448z" />
<glyph unicode="l" horiz-adv-x="477" d="M332 0h-185v1366h185v-1366z" />
<glyph unicode="m" horiz-adv-x="1679" d="M1534 0h-184v659q0 90 -42 140.5t-130 50.5q-71 0 -139.5 -41.5t-106.5 -99.5v-709h-184v659q0 191 -175 191q-68 0 -134.5 -42.5t-106.5 -100.5v-707h-185v989h185v-139q38 56 128.5 110t190.5 54q108 0 176 -50.5t93 -134.5q46 75 138 130t195 55q137 0 209 -75.5 t72 -223.5v-715z" />
<glyph unicode="n" horiz-adv-x="1144" d="M999 0h-184v633q0 117 -54.5 167t-156.5 50q-82 0 -155.5 -41.5t-116.5 -101.5v-707h-185v989h185v-139q56 67 149.5 115.5t200.5 48.5q156 0 236.5 -81.5t80.5 -238.5v-694z" />
<glyph unicode="o" horiz-adv-x="1171" d="M586 -25q-149 0 -264.5 70.5t-175.5 188.5t-60 262q0 143 60 260t175.5 187.5t264.5 70.5q150 0 265 -70.5t174.5 -187.5t59.5 -260q0 -144 -59.5 -262t-174.5 -188.5t-265 -70.5zM586 139q143 0 225 104t82 253q0 95 -34.5 174t-105.5 129.5t-167 50.5q-95 0 -166 -50 t-106 -129.5t-35 -174.5q0 -96 35 -176t106 -130.5t166 -50.5z" />
<glyph unicode="p" horiz-adv-x="1181" d="M332 143v-520h-185v1366h185v-141q56 76 141 121t182 45q197 0 319 -139.5t122 -378.5q0 -240 -122.5 -380.5t-318.5 -140.5q-97 0 -180 43t-143 125zM903 496q0 156 -80.5 255t-216.5 99q-83 0 -159.5 -41.5t-114.5 -103.5v-420q38 -61 115 -103.5t159 -42.5 q136 0 216.5 99.5t80.5 257.5z" />
<glyph unicode="q" horiz-adv-x="1181" d="M1036 989v-1366h-184v520q-60 -81 -144.5 -124.5t-181.5 -43.5q-196 0 -318 140.5t-122 380.5q0 239 121.5 378.5t318.5 139.5q97 0 183 -45t143 -121v141h184zM852 285v420q-39 62 -116 103.5t-158 41.5q-136 0 -217.5 -99t-81.5 -255q0 -158 81.5 -257.5t217.5 -99.5 q81 0 157.5 42.5t116.5 103.5z" />
<glyph unicode="r" horiz-adv-x="692" d="M332 0h-185v989h185v-151q60 78 144.5 126t178.5 48v-187q-27 6 -63 6q-69 0 -148.5 -43.5t-111.5 -99.5v-688z" />
<glyph unicode="s" horiz-adv-x="958" d="M61 129l89 135q54 -59 145 -100t186 -41q102 0 157.5 38.5t55.5 102.5q0 35 -18 61.5t-55.5 45t-73 29.5t-92.5 24l-57 13.5t-56 15t-57 18.5t-50.5 22.5t-48 29t-38.5 35.5t-32 44.5t-18.5 53.5t-7.5 65q0 124 101 208.5t276 84.5q228 0 377 -142l-82 -129 q-44 54 -122.5 87.5t-170.5 33.5q-94 0 -148.5 -34.5t-54.5 -94.5q0 -25 13 -45.5t31.5 -33.5t52.5 -26t60.5 -20t72.5 -18q38 -9 58.5 -14t57.5 -15t58.5 -19t52.5 -24t49.5 -30t40 -37.5t32.5 -47t19 -57t8 -69.5q0 -133 -105 -218.5t-294 -85.5q-261 0 -412 154z" />
<glyph unicode="t" horiz-adv-x="626" d="M420 -25q-116 0 -176 63t-60 181v608h-164v162h164v271h185v-271h200v-162h-200v-567q0 -54 25 -87.5t71 -33.5q31 0 58.5 11.5t41.5 27.5l47 -139q-67 -64 -192 -64z" />
<glyph unicode="u" horiz-adv-x="1144" d="M999 0h-184v135q-64 -69 -155 -114.5t-197 -45.5q-316 0 -316 316v698h185v-637q0 -117 53.5 -165t155.5 -48q82 0 156 40.5t118 99.5v710h184v-989z" />
<glyph unicode="v" horiz-adv-x="1017" d="M608 0h-198l-408 989h197l309 -776l309 776h199z" />
<glyph unicode="w" horiz-adv-x="1523" d="M1196 0h-190l-244 760l-244 -760h-190l-312 989h193l225 -753l248 753h160l248 -753l225 753h192z" />
<glyph unicode="x" horiz-adv-x="1005" d="M989 0h-209l-276 385l-279 -385h-209l371 508l-348 481h209l256 -356l254 356h209l-351 -481z" />
<glyph unicode="y" horiz-adv-x="1017" d="M98 -387l29 166q39 -17 82 -17q53 0 86.5 21.5t56.5 75.5l58 131l-408 999h197l309 -776l309 776h199l-488 -1177q-45 -112 -123.5 -161.5t-191.5 -51.5q-64 0 -115 14z" />
<glyph unicode="z" horiz-adv-x="970" d="M868 0h-768v141l516 686h-516v162h760v-137l-520 -692h528v-160z" />
<glyph unicode="{" horiz-adv-x="548" d="M514 -389h-125q-109 0 -190.5 80.5t-81.5 208.5v401q0 61 -27.5 101t-79.5 40v115q52 0 79.5 40t27.5 101v400q0 129 81.5 210t190.5 81h125v-132h-125q-55 0 -94 -44.5t-39 -114.5v-416q0 -142 -94 -182q94 -40 94 -183v-415q0 -69 39 -114.5t94 -45.5h125v-131z" />
<glyph unicode="|" horiz-adv-x="434" d="M283 -41h-131v1448h131v-1448z" />
<glyph unicode="}" horiz-adv-x="548" d="M35 -389v131h125q56 0 94.5 45t38.5 115v415q0 143 94 183q-94 40 -94 182v416q0 71 -38 115t-95 44h-125v132h125q109 0 191.5 -81.5t82.5 -209.5v-400q0 -61 27.5 -101t79.5 -40v-115q-52 0 -79.5 -40t-27.5 -101v-401q0 -128 -82 -208.5t-192 -80.5h-125z" />
<glyph unicode="~" horiz-adv-x="1034" d="M846 938l133 -14q-8 -83 -18.5 -147.5t-32.5 -131.5t-52 -111t-77.5 -72t-108.5 -28q-31 0 -58 8t-46 18.5t-37.5 32t-29 36t-23.5 45t-18 44t-17 46.5t-17.5 47.5t-17.5 39t-22 35.5t-26 20t-34 9q-124 0 -156 -385l-135 19q8 82 19.5 146t33.5 131t52.5 110.5 t77.5 71.5t108 28q36 0 65 -8.5t51.5 -28t38 -37t31 -50t23 -51.5t20.5 -56q12 -33 17.5 -47.5t17.5 -39.5t22 -36t26 -20t34 -9q124 0 156 385z" />
<glyph unicode="&#xa1;" horiz-adv-x="487" d="M242 1010q52 0 90.5 -38t38.5 -89q0 -52 -38 -89.5t-91 -37.5q-52 0 -88.5 37t-36.5 90q0 52 36.5 89.5t88.5 37.5zM131 -377l33 965h158l36 -965h-227z" />
<glyph unicode="&#xa2;" horiz-adv-x="1015" d="M651 846v-703q114 18 187 119l123 -112q-111 -151 -310 -170v-185h-141v187q-190 26 -307 168.5t-117 345.5t117 344.5t307 167.5v149h141v-147q199 -19 310 -170l-123 -113q-70 101 -187 119zM279 496q0 -129 62 -222t169 -122v686q-107 -28 -169 -120.5t-62 -221.5z " />
<glyph unicode="&#xa3;" horiz-adv-x="1079" d="M973 236l84 -164q-96 -99 -283 -99q-45 0 -86.5 9t-63.5 17.5t-57 25.5q-36 15 -49.5 20.5t-46.5 13t-65 7.5q-91 0 -240 -80l-72 147q122 54 190 132t68 165q0 65 -28 119h-283v127h195l-3 2q-34 41 -51.5 65t-41 63.5t-34 81.5t-10.5 89q0 115 66 209.5t173.5 147 t231.5 52.5q149 0 260.5 -60t169.5 -173l-163 -98q-28 68 -95 115t-151 47q-113 0 -192 -67t-79 -177q0 -51 18 -99.5t36.5 -75.5t54.5 -73l37 -49h305v-127h-242q9 -52 9 -74q0 -157 -150 -258q50 16 107 16q65 0 155 -40q84 -37 135 -37q63 0 114.5 24.5t76.5 55.5z" />
<glyph unicode="&#xa4;" horiz-adv-x="1239" d="M1118 682q0 -168 -90 -297l156 -154l-113 -110l-156 153q-128 -88 -297 -88q-171 0 -296 88l-154 -153l-113 110l156 156q-90 125 -90 295q0 169 92 297l-160 160l113 108l160 -157q122 86 292 86q173 0 295 -86l158 157l113 -110l-158 -158q92 -128 92 -297zM618 352 q146 0 229 96t83 234q0 136 -83 231t-229 95q-143 0 -227 -95t-84 -231q0 -137 84 -233.5t227 -96.5z" />
<glyph unicode="&#xa5;" horiz-adv-x="1294" d="M1044 1366h238l-453 -672h420v-123h-499v-202h499v-123h-499v-246h-205v246h-498v123h498v202h-498v123h416l-453 672h236l401 -610z" />
<glyph unicode="&#xa6;" horiz-adv-x="434" d="M283 760h-131v647h131v-647zM283 -41h-131v647h131v-647z" />
<glyph unicode="&#xa7;" horiz-adv-x="966" d="M688 389q184 -71 184 -250q0 -142 -110.5 -223.5t-288.5 -81.5q-139 0 -236 43t-174 117l87 119q53 -61 138.5 -103.5t184.5 -42.5t160 42.5t61 117.5q0 25 -8.5 46t-28 37t-38.5 27.5t-53.5 23t-58 17.5t-65.5 17q-39 10 -56 14.5t-54 16t-55 19.5t-48.5 23t-46.5 29 t-36.5 35t-30.5 43.5t-17.5 52t-7.5 62.5q0 99 64.5 164.5t160.5 93.5q-110 37 -167.5 98.5t-57.5 157.5q0 119 103.5 200.5t273.5 81.5q244 0 375 -143l-80 -110q-51 58 -128.5 89t-158.5 31q-94 0 -151.5 -41t-57.5 -108q0 -42 37.5 -72t74 -42t121.5 -32q5 -1 7 -2 q48 -11 75 -18t71 -21t70 -28.5t58.5 -38t49.5 -50.5t29.5 -65t12.5 -84q0 -86 -47 -153.5t-137 -108.5zM477 801q-116 -31 -163.5 -77.5t-47.5 -113.5q0 -39 20 -67.5t60.5 -47.5t78.5 -30.5t98 -25.5q9 -2 14 -3q77 34 116 78.5t39 108.5q0 40 -18 70.5t-52 51t-66.5 32.5 t-78.5 24z" />
<glyph unicode="&#xa8;" horiz-adv-x="851" d="M213 1157q-44 0 -76.5 32.5t-32.5 76.5t32 75t77 31q44 0 75 -31t31 -75q0 -45 -31 -77t-75 -32zM639 1157q-44 0 -76.5 32.5t-32.5 76.5t32 75t77 31q43 0 76 -31t33 -75t-33 -76.5t-76 -32.5z" />
<glyph unicode="&#xa9;" horiz-adv-x="1593" d="M797 -25q-191 0 -354 95t-258 258t-95 354q0 192 95 355t258 257.5t354 94.5q144 0 275 -56t225 -150.5t150 -225.5t56 -275q0 -143 -56 -274t-150 -226t-225 -151t-275 -56zM797 1323q-130 0 -248.5 -51t-204.5 -137t-137 -204.5t-51 -248.5t51 -248.5t137 -204.5 t204.5 -137t248.5 -51t248.5 51t204.5 137t137 204.5t51 248.5t-51 248.5t-137 204.5t-204.5 137t-248.5 51zM1049 436l55 -53q-118 -137 -301 -137q-178 0 -302 126t-124 312t123.5 310t302.5 124q185 0 301 -135l-57 -53q-40 54 -106 85.5t-138 31.5q-142 0 -243 -102 t-101 -261q0 -157 101.5 -262t242.5 -105q73 0 139.5 32.5t106.5 86.5z" />
<glyph unicode="&#xaa;" horiz-adv-x="778" d="M659 668h-137v69q-79 -86 -217 -86q-90 0 -158.5 57.5t-68.5 155.5q0 99 68 155t159 56q138 0 217 -86v105q0 58 -44 92.5t-111 34.5q-118 0 -199 -93l-57 91q111 108 276 108q119 0 195.5 -56t76.5 -179v-424zM522 813v102q-26 33 -70 52.5t-92 19.5q-62 0 -103.5 -34 t-41.5 -89q0 -56 41 -89.5t104 -33.5q49 0 92.5 19t69.5 53z" />
<glyph unicode="&#xab;" horiz-adv-x="950" d="M567 129h-178l-328 369l328 362h178l-327 -362zM889 129h-178l-328 369l328 362h178l-328 -362z" />
<glyph unicode="&#xac;" horiz-adv-x="1038" d="M965 942v-516h-127v393h-779v123h906z" />
<glyph unicode="&#xad;" horiz-adv-x="614" d="M553 416h-492v159h492v-159z" />
<glyph unicode="&#xae;" horiz-adv-x="1011" d="M506 518q-180 0 -307 127t-127 307q0 181 127 307.5t307 126.5q119 0 219 -57.5t157.5 -157.5t57.5 -219q0 -180 -126.5 -307t-307.5 -127zM506 1325q-156 0 -265.5 -108.5t-109.5 -264.5q0 -154 110 -264t265 -110t264 110t109 264q0 156 -108.5 264.5t-264.5 108.5z M707 702h-82l-129 197h-90v-197h-66v498h203q66 0 111.5 -42t45.5 -109q0 -72 -46 -110t-81 -38zM543 1141h-137v-180h137q36 0 63 25.5t27 62.5q0 40 -27 66t-63 26z" />
<glyph unicode="&#xaf;" horiz-adv-x="743" d="M694 1165h-645v113h645v-113z" />
<glyph unicode="&#xb0;" horiz-adv-x="606" d="M301 872q-106 0 -181 74.5t-75 181.5q0 106 75 182t181 76q107 0 182.5 -76t75.5 -182q0 -107 -75.5 -181.5t-182.5 -74.5zM301 1276q-60 0 -101.5 -44t-41.5 -104t41.5 -102.5t101.5 -42.5t104 42.5t44 102.5t-44 104t-104 44z" />
<glyph unicode="&#xb1;" horiz-adv-x="1024" d="M965 664h-385v-431h-136v431h-385v122h385v418h136v-418h385v-122zM965 0h-906v123h906v-123z" />
<glyph unicode="&#xb2;" horiz-adv-x="798" d="M711 862h-611v107q259 183 360 282.5t101 186.5q0 68 -47 103.5t-117 35.5q-71 0 -132.5 -31t-94.5 -76l-78 93q54 64 136.5 97.5t172.5 33.5q129 0 216.5 -64t87.5 -182q0 -57 -26.5 -114t-81.5 -116t-122 -114t-164 -125h400v-117z" />
<glyph unicode="&#xb3;" horiz-adv-x="798" d="M397 848q-109 0 -191 36t-126 95l76 92q40 -50 104 -78t131 -28q84 0 131 34.5t47 94.5q0 129 -202 129q-74 0 -86 -2v118q16 -2 84 -2q192 0 192 119q0 58 -49 89.5t-125 31.5q-128 0 -221 -96l-72 86q116 127 307 127q137 0 219 -59.5t82 -159.5q0 -80 -54.5 -129.5 t-127.5 -61.5q72 -5 134.5 -57.5t62.5 -141.5q0 -106 -85.5 -171.5t-230.5 -65.5z" />
<glyph unicode="&#xb4;" horiz-adv-x="477" d="M477 1434l-342 -295h-135l295 295h182z" />
<glyph unicode="&#xb5;" horiz-adv-x="1173" d="M332 61v-438h-185v1366h185v-637q0 -215 211 -215q80 0 154 41t118 101v710h184v-739q0 -51 24 -81t67 -30q20 0 40 4l13 -157q-46 -11 -92 -11q-188 0 -228 177q-54 -78 -134.5 -127.5t-170.5 -49.5q-134 0 -186 86z" />
<glyph unicode="&#xb6;" horiz-adv-x="919" d="M788 -205h-102v1469h-176v-1469h-102v867q-146 0 -249.5 103t-103.5 249t103.5 249t249.5 103h380v-1571z" />
<glyph unicode="&#xb7;" horiz-adv-x="487" d="M242 373q-52 0 -89.5 38t-37.5 89q0 53 37.5 91t89.5 38t90.5 -38.5t38.5 -90.5q0 -51 -38.5 -89t-90.5 -38z" />
<glyph unicode="&#xb8;" horiz-adv-x="428" d="M0 -332l41 86q73 -59 166 -59q51 0 86 21.5t35 62.5q0 28 -19 44.5t-55 16.5q-45 0 -72 -30l-78 43l64 170h102l-53 -134q33 23 76 23q59 0 97 -37.5t38 -97.5q0 -78 -62 -125t-155 -47q-64 0 -121 18t-90 45z" />
<glyph unicode="&#xb9;" horiz-adv-x="512" d="M389 862h-145v633l-135 -141l-84 88l237 239h127v-819z" />
<glyph unicode="&#xba;" horiz-adv-x="829" d="M76 989q0 143 93 240.5t245 97.5q154 0 247 -97t93 -241q0 -143 -93 -240.5t-247 -97.5q-151 0 -244.5 98t-93.5 240zM610 989q0 98 -52 159.5t-144 61.5q-91 0 -143 -61.5t-52 -159.5q0 -99 51.5 -161t143.5 -62t144 62t52 161z" />
<glyph unicode="&#xbb;" horiz-adv-x="950" d="M567 498l-327 -369h-179l328 369l-328 362h179zM889 498l-328 -369h-178l328 369l-328 362h178z" />
<glyph unicode="&#xbc;" d="M389 547h-145v633l-135 -142l-84 88l237 240h127v-819zM1221 1366l-875 -1366h-125l873 1366h127zM1499 197h-115v-197h-143v197h-401v102l344 520h200v-506h115v-116zM1241 313v381l-258 -381h258z" />
<glyph unicode="&#xbd;" horiz-adv-x="1669" d="M389 547h-145v633l-135 -142l-84 88l237 240h127v-819zM1221 1366l-875 -1366h-125l873 1366h127zM1579 0h-610v106q259 183 360 282.5t101 186.5q0 68 -47 104t-117 36q-71 0 -133 -31.5t-95 -75.5l-77 92q54 64 136.5 97.5t172.5 33.5q129 0 216 -63.5t87 -181.5 q0 -110 -97 -218.5t-296 -250.5h399v-117z" />
<glyph unicode="&#xbe;" horiz-adv-x="1792" d="M397 532q-109 0 -191 36.5t-126 95.5l76 92q41 -50 104.5 -78.5t130.5 -28.5q84 0 131 34.5t47 94.5q0 129 -202 129q-74 0 -86 -2v119q16 -2 84 -2q192 0 192 119q0 58 -49 89.5t-125 31.5q-127 0 -221 -97l-72 86q116 127 307 127q137 0 219 -59.5t82 -159.5 q0 -80 -54.5 -129t-127.5 -61q72 -5 134.5 -57.5t62.5 -141.5q0 -106 -86 -172t-230 -66zM1446 1366l-875 -1366h-125l873 1366h127zM1724 197h-114v-197h-144v197h-401v102l344 520h201v-506h114v-116zM1466 313v381l-258 -381h258z" />
<glyph unicode="&#xbf;" horiz-adv-x="808" d="M610 881q0 -51 -38 -88t-91 -37q-52 0 -89.5 37t-37.5 88q0 53 37.5 91t89.5 38q53 0 91 -38t38 -91zM616 424q0 -39 -12.5 -75t-27 -60t-46.5 -53t-49.5 -42.5t-56.5 -41.5q-40 -28 -61 -44.5t-47.5 -43t-38 -54.5t-11.5 -61q0 -72 57 -120t162 -48q183 0 306 156 l118 -134q-76 -97 -190.5 -150.5t-253.5 -53.5q-187 0 -298.5 90.5t-111.5 228.5q0 49 14.5 93t32.5 73.5t54.5 64t58 50.5t64.5 47q41 29 62 45t47.5 42t38 52.5t11.5 56.5q0 25 -14 51.5t-37 45.5l154 55q75 -69 75 -170z" />
<glyph unicode="&#xc0;" horiz-adv-x="1363" d="M748 1481h-136l-342 295h183zM1352 0h-226l-110 283h-670l-110 -283h-226l543 1366h256zM956 465l-276 723l-274 -723h550z" />
<glyph unicode="&#xc1;" horiz-adv-x="1363" d="M1083 1776l-342 -295h-135l295 295h182zM1352 0h-226l-110 283h-670l-110 -283h-226l543 1366h256zM956 465l-276 723l-274 -723h550z" />
<glyph unicode="&#xc2;" horiz-adv-x="1363" d="M965 1481h-121l-164 207l-160 -207h-119l193 295h172zM1352 0h-226l-110 283h-670l-110 -283h-226l543 1366h256zM956 465l-276 723l-274 -723h550z" />
<glyph unicode="&#xc3;" horiz-adv-x="1363" d="M645 1577q-18 26 -27.5 38t-27.5 24t-37 12q-41 0 -66.5 -40.5t-25.5 -121.5h-105q0 126 53.5 200t151.5 74q28 0 51.5 -8t43.5 -25.5t30.5 -30t28.5 -36.5q21 -28 29.5 -38.5t27 -23t37.5 -12.5q41 0 65.5 40.5t24.5 121.5h107q0 -126 -53.5 -200t-151.5 -74 q-29 0 -53 8t-44 25.5t-30.5 30t-28.5 36.5zM1352 0h-226l-110 283h-670l-110 -283h-226l543 1366h256zM956 465l-276 723l-274 -723h550z" />
<glyph unicode="&#xc4;" horiz-adv-x="1363" d="M469 1499q-44 0 -76.5 32.5t-32.5 76.5t32 75t77 31q44 0 75 -31t31 -75q0 -45 -31 -77t-75 -32zM895 1499q-44 0 -76.5 32.5t-32.5 76.5t32 75t77 31q43 0 76 -31t33 -75t-33 -76.5t-76 -32.5zM1352 0h-226l-110 283h-670l-110 -283h-226l543 1366h256zM956 465 l-276 723l-274 -723h550z" />
<glyph unicode="&#xc5;" horiz-adv-x="1363" d="M477 1653q0 85 60 146t145 61q84 0 143.5 -61t59.5 -146t-59.5 -146t-143.5 -61q-85 0 -145 61t-60 146zM795 1653q0 46 -33 79t-80 33q-46 0 -79.5 -33t-33.5 -79t33.5 -80.5t79.5 -34.5q47 0 80 34.5t33 80.5zM1352 0h-226l-110 283h-670l-110 -283h-226l543 1366h256z M956 465l-276 723l-274 -723h550z" />
<glyph unicode="&#xc6;" horiz-adv-x="1951" d="M1849 0h-917v283h-529l-174 -283h-223l846 1366h997v-180h-712v-400h698v-180h-698v-426h712v-180zM932 465v725l-430 -725h430z" />
<glyph unicode="&#xc7;" horiz-adv-x="1390" d="M795 158q118 0 215 54.5t153 143.5l174 -92q-187 -273 -506 -289l-34 -86q33 23 75 23q59 0 97.5 -37.5t38.5 -97.5q0 -78 -62 -125t-155 -47q-64 0 -121 18t-90 45l41 86q73 -59 165 -59q51 0 86 21.5t35 62.5q0 28 -18.5 44.5t-54.5 16.5q-45 0 -72 -30l-78 43l47 124 q-134 12 -250.5 68t-202 146.5t-135 217.5t-49.5 273q0 154 55 287t149.5 224.5t223 143.5t273.5 52q351 0 542 -289l-174 -92q-56 89 -153 143.5t-215 54.5q-209 0 -349.5 -148t-140.5 -376q0 -227 140.5 -375.5t349.5 -148.5z" />
<glyph unicode="&#xc8;" horiz-adv-x="1173" d="M690 1481h-135l-342 295h182zM1069 0h-917v1366h917v-180h-713v-400h699v-180h-699v-426h713v-180z" />
<glyph unicode="&#xc9;" horiz-adv-x="1173" d="M1026 1776l-342 -295h-135l295 295h182zM1069 0h-917v1366h917v-180h-713v-400h699v-180h-699v-426h713v-180z" />
<glyph unicode="&#xca;" horiz-adv-x="1173" d="M907 1481h-121l-163 207l-160 -207h-119l193 295h172zM1069 0h-917v1366h917v-180h-713v-400h699v-180h-699v-426h713v-180z" />
<glyph unicode="&#xcb;" horiz-adv-x="1173" d="M410 1499q-44 0 -76.5 32.5t-32.5 76.5t32 75t77 31q44 0 75 -31t31 -75q0 -45 -31 -77t-75 -32zM836 1499q-44 0 -76.5 32.5t-32.5 76.5t32 75t77 31q43 0 75.5 -31t32.5 -75t-32.5 -76.5t-75.5 -32.5zM1069 0h-917v1366h917v-180h-713v-400h699v-180h-699v-426h713 v-180z" />
<glyph unicode="&#xcc;" horiz-adv-x="509" d="M322 1481h-136l-342 295h183zM356 0h-204v1366h204v-1366z" />
<glyph unicode="&#xcd;" horiz-adv-x="509" d="M659 1776l-342 -295h-135l295 295h182zM356 0h-204v1366h204v-1366z" />
<glyph unicode="&#xce;" horiz-adv-x="509" d="M541 1481h-121l-164 207l-160 -207h-119l193 295h172zM356 0h-204v1366h204v-1366z" />
<glyph unicode="&#xcf;" horiz-adv-x="509" d="M43 1499q-44 0 -76.5 32.5t-32.5 76.5t32 75t77 31q44 0 75.5 -31t31.5 -75t-31.5 -76.5t-75.5 -32.5zM469 1499q-44 0 -76.5 32.5t-32.5 76.5t32 75t77 31q43 0 76 -31t33 -75t-33 -76.5t-76 -32.5zM356 0h-204v1366h204v-1366z" />
<glyph unicode="&#xd0;" horiz-adv-x="1499" d="M207 1366h487q209 0 371.5 -89t250 -244.5t87.5 -350.5q0 -147 -51.5 -273t-143 -216.5t-224.5 -141.5t-290 -51h-487v596h-187v154h187v616zM412 180h282q153 0 268 68.5t172.5 181.5t57.5 252q0 142 -56.5 255t-171 181t-270.5 68h-282v-436h336v-154h-336v-416z" />
<glyph unicode="&#xd1;" horiz-adv-x="1462" d="M696 1577q-18 26 -27.5 38t-27.5 24t-37 12q-41 0 -66.5 -40.5t-25.5 -121.5h-104q0 126 53 200t151 74q28 0 51.5 -8t43.5 -25.5t30.5 -30t28.5 -36.5q21 -28 29.5 -38.5t27 -23t37.5 -12.5q41 0 65.5 40.5t24.5 121.5h107q0 -126 -53.5 -200t-151.5 -74q-29 0 -53 8 t-44 25.5t-30.5 30t-28.5 36.5zM1311 0h-199l-756 1049v-1049h-204v1366h210l744 -1024v1024h205v-1366z" />
<glyph unicode="&#xd2;" d="M848 1481h-135l-342 295h182zM94 682q0 201 86 362t243.5 253t358.5 92t358.5 -92t243.5 -253t86 -362t-86 -362t-243.5 -253t-358.5 -92t-358.5 92t-243.5 253t-86 362zM1260 682q0 229 -132 376.5t-346 147.5q-216 0 -346.5 -147t-130.5 -377q0 -228 130.5 -376 t346.5 -148q214 0 346 148.5t132 375.5z" />
<glyph unicode="&#xd3;" d="M1184 1776l-342 -295h-135l294 295h183zM94 682q0 201 86 362t243.5 253t358.5 92t358.5 -92t243.5 -253t86 -362t-86 -362t-243.5 -253t-358.5 -92t-358.5 92t-243.5 253t-86 362zM1260 682q0 229 -132 376.5t-346 147.5q-216 0 -346.5 -147t-130.5 -377 q0 -228 130.5 -376t346.5 -148q214 0 346 148.5t132 375.5z" />
<glyph unicode="&#xd4;" d="M1065 1481h-121l-164 207l-159 -207h-119l192 295h172zM94 682q0 201 86 362t243.5 253t358.5 92t358.5 -92t243.5 -253t86 -362t-86 -362t-243.5 -253t-358.5 -92t-358.5 92t-243.5 253t-86 362zM1260 682q0 229 -132 376.5t-346 147.5q-216 0 -346.5 -147t-130.5 -377 q0 -228 130.5 -376t346.5 -148q214 0 346 148.5t132 375.5z" />
<glyph unicode="&#xd5;" d="M745 1577q-18 26 -27.5 38t-27.5 24t-37 12q-41 0 -66.5 -40.5t-25.5 -121.5h-104q0 126 53.5 200t151.5 74q28 0 51.5 -8t43 -26t30 -29.5t28.5 -36.5q21 -28 29.5 -38.5t27 -23t37.5 -12.5q41 0 65.5 40.5t24.5 121.5h107q0 -126 -53.5 -200t-151.5 -74q-29 0 -53 8 t-44 25.5t-30.5 30t-28.5 36.5zM94 682q0 201 86 362t243.5 253t358.5 92t358.5 -92t243.5 -253t86 -362t-86 -362t-243.5 -253t-358.5 -92t-358.5 92t-243.5 253t-86 362zM1260 682q0 229 -132 376.5t-346 147.5q-216 0 -346.5 -147t-130.5 -377q0 -228 130.5 -376 t346.5 -148q214 0 346 148.5t132 375.5z" />
<glyph unicode="&#xd6;" d="M569 1499q-44 0 -76 32.5t-32 76.5t32 75t76 31t75.5 -31t31.5 -75t-31.5 -76.5t-75.5 -32.5zM995 1499q-44 0 -76 32.5t-32 76.5t32 75t76 31q43 0 76 -31t33 -75t-33 -76.5t-76 -32.5zM94 682q0 201 86 362t243.5 253t358.5 92t358.5 -92t243.5 -253t86 -362t-86 -362 t-243.5 -253t-358.5 -92t-358.5 92t-243.5 253t-86 362zM1260 682q0 229 -132 376.5t-346 147.5q-216 0 -346.5 -147t-130.5 -377q0 -228 130.5 -376t346.5 -148q214 0 346 148.5t132 375.5z" />
<glyph unicode="&#xd7;" horiz-adv-x="1024" d="M811 297l-299 299l-299 -299l-88 86l301 301l-301 299l88 88l299 -301l299 301l88 -88l-299 -299l299 -301z" />
<glyph unicode="&#xd8;" d="M1358 1401l-123 -170q112 -96 173.5 -238.5t61.5 -310.5q0 -201 -86 -362t-243.5 -253t-358.5 -92q-214 0 -381 107l-129 -180l-84 61l131 180q-107 96 -166 235.5t-59 303.5q0 201 86 362t243.5 253t358.5 92q202 0 367 -97l125 172zM305 682q0 -230 131 -377l600 832 q-110 69 -254 69q-216 0 -346.5 -147t-130.5 -377zM782 158q214 0 346 148.5t132 375.5q0 239 -142 387l-604 -833q118 -78 268 -78z" />
<glyph unicode="&#xd9;" horiz-adv-x="1454" d="M795 1481h-136l-342 295h183zM152 535v831h206v-825q0 -178 96 -280.5t273 -102.5t272 102.5t95 280.5v825h206v-829q0 -262 -146 -412t-427 -150q-280 0 -427.5 150.5t-147.5 409.5z" />
<glyph unicode="&#xda;" horiz-adv-x="1454" d="M1130 1776l-342 -295h-135l295 295h182zM152 535v831h206v-825q0 -178 96 -280.5t273 -102.5t272 102.5t95 280.5v825h206v-829q0 -262 -146 -412t-427 -150q-280 0 -427.5 150.5t-147.5 409.5z" />
<glyph unicode="&#xdb;" horiz-adv-x="1454" d="M1012 1481h-121l-164 207l-160 -207h-118l192 295h172zM152 535v831h206v-825q0 -178 96 -280.5t273 -102.5t272 102.5t95 280.5v825h206v-829q0 -262 -146 -412t-427 -150q-280 0 -427.5 150.5t-147.5 409.5z" />
<glyph unicode="&#xdc;" horiz-adv-x="1454" d="M516 1499q-44 0 -76 32.5t-32 76.5t32 75t76 31t75.5 -31t31.5 -75t-31.5 -76.5t-75.5 -32.5zM942 1499q-44 0 -76 32.5t-32 76.5t32 75t76 31q43 0 76 -31t33 -75t-33 -76.5t-76 -32.5zM152 535v831h206v-825q0 -178 96 -280.5t273 -102.5t272 102.5t95 280.5v825h206 v-829q0 -262 -146 -412t-427 -150q-280 0 -427.5 150.5t-147.5 409.5z" />
<glyph unicode="&#xdd;" horiz-adv-x="1294" d="M1049 1776l-342 -295h-136l295 295h183zM750 0h-205v571l-535 795h236l401 -610l397 610h238l-532 -795v-571z" />
<glyph unicode="&#xde;" horiz-adv-x="1222" d="M356 0h-204v1366h204v-238h371q136 0 236.5 -58.5t150 -153t49.5 -209.5q0 -177 -117 -296.5t-319 -119.5h-371v-291zM952 709q0 104 -71 170.5t-181 66.5h-344v-475h344q111 0 181.5 65.5t70.5 172.5z" />
<glyph unicode="&#xdf;" horiz-adv-x="1165" d="M733 748q155 -29 250.5 -135.5t95.5 -241.5q0 -185 -115 -290.5t-292 -105.5q-152 0 -262 78l65 137q88 -57 197 -57q89 0 153 65t64 179q0 131 -105 210t-309 70v148q148 0 224.5 64t76.5 159q0 93 -64 144t-143 51q-115 0 -181 -74t-66 -229v-920h-185v920 q0 109 35 198.5t94.5 147t136.5 89t164 31.5q170 0 286 -94.5t116 -242.5q0 -108 -64 -187t-172 -114z" />
<glyph unicode="&#xe0;" horiz-adv-x="1089" d="M614 1139h-135l-342 295h182zM942 0h-184v109q-122 -134 -324 -134q-63 0 -123 21.5t-110 61t-80.5 103.5t-30.5 142q0 81 30 145t80 102t110 57.5t124 19.5q211 0 324 -131v163q0 91 -67 144t-175 53q-166 0 -297 -131l-80 127q165 162 406 162q84 0 153.5 -19t125 -59 t87 -108.5t31.5 -159.5v-668zM758 217v168q-40 54 -108 83.5t-146 29.5q-100 0 -164 -55t-64 -142t64 -142t164 -55q78 0 146 29.5t108 83.5z" />
<glyph unicode="&#xe1;" horiz-adv-x="1089" d="M950 1434l-342 -295h-135l295 295h182zM942 0h-184v109q-122 -134 -324 -134q-63 0 -123 21.5t-110 61t-80.5 103.5t-30.5 142q0 81 30 145t80 102t110 57.5t124 19.5q211 0 324 -131v163q0 91 -67 144t-175 53q-166 0 -297 -131l-80 127q165 162 406 162q84 0 153.5 -19 t125 -59t87 -108.5t31.5 -159.5v-668zM758 217v168q-40 54 -108 83.5t-146 29.5q-100 0 -164 -55t-64 -142t64 -142t164 -55q78 0 146 29.5t108 83.5z" />
<glyph unicode="&#xe2;" horiz-adv-x="1089" d="M831 1139h-120l-164 207l-160 -207h-119l193 295h172zM942 0h-184v109q-122 -134 -324 -134q-63 0 -123 21.5t-110 61t-80.5 103.5t-30.5 142q0 81 30 145t80 102t110 57.5t124 19.5q211 0 324 -131v163q0 91 -67 144t-175 53q-166 0 -297 -131l-80 127q165 162 406 162 q84 0 153.5 -19t125 -59t87 -108.5t31.5 -159.5v-668zM758 217v168q-40 54 -108 83.5t-146 29.5q-100 0 -164 -55t-64 -142t64 -142t164 -55q78 0 146 29.5t108 83.5z" />
<glyph unicode="&#xe3;" horiz-adv-x="1089" d="M512 1235q-18 26 -27.5 38t-27.5 24t-37 12q-41 0 -66.5 -40.5t-25.5 -121.5h-105q0 126 53.5 200t151.5 74q28 0 51.5 -8t43.5 -25.5t30.5 -30t28.5 -36.5q21 -28 29.5 -38.5t27 -23t37.5 -12.5q41 0 65.5 40.5t24.5 121.5h106q0 -126 -53 -200t-151 -74q-29 0 -53 8 t-44 25.5t-30.5 30t-28.5 36.5zM942 0h-184v109q-122 -134 -324 -134q-63 0 -123 21.5t-110 61t-80.5 103.5t-30.5 142q0 81 30 145t80 102t110 57.5t124 19.5q211 0 324 -131v163q0 91 -67 144t-175 53q-166 0 -297 -131l-80 127q165 162 406 162q84 0 153.5 -19t125 -59 t87 -108.5t31.5 -159.5v-668zM758 217v168q-40 54 -108 83.5t-146 29.5q-100 0 -164 -55t-64 -142t64 -142t164 -55q78 0 146 29.5t108 83.5z" />
<glyph unicode="&#xe4;" horiz-adv-x="1089" d="M334 1157q-44 0 -76.5 32.5t-32.5 76.5t32 75t77 31q44 0 75 -31t31 -75q0 -45 -31 -77t-75 -32zM760 1157q-44 0 -76.5 32.5t-32.5 76.5t32 75t77 31q43 0 75.5 -31t32.5 -75t-32.5 -76.5t-75.5 -32.5zM942 0h-184v109q-122 -134 -324 -134q-63 0 -123 21.5t-110 61 t-80.5 103.5t-30.5 142q0 81 30 145t80 102t110 57.5t124 19.5q211 0 324 -131v163q0 91 -67 144t-175 53q-166 0 -297 -131l-80 127q165 162 406 162q84 0 153.5 -19t125 -59t87 -108.5t31.5 -159.5v-668zM758 217v168q-40 54 -108 83.5t-146 29.5q-100 0 -164 -55 t-64 -142t64 -142t164 -55q78 0 146 29.5t108 83.5z" />
<glyph unicode="&#xe5;" horiz-adv-x="1089" d="M344 1311q0 85 60 146t145 61q84 0 143.5 -61t59.5 -146t-59.5 -146t-143.5 -61q-85 0 -145 61t-60 146zM662 1311q0 46 -33 79t-80 33q-46 0 -79.5 -33t-33.5 -79t33.5 -80.5t79.5 -34.5q47 0 80 34.5t33 80.5zM942 0h-184v109q-122 -134 -324 -134q-63 0 -123 21.5 t-110 61t-80.5 103.5t-30.5 142q0 81 30 145t80 102t110 57.5t124 19.5q211 0 324 -131v163q0 91 -67 144t-175 53q-166 0 -297 -131l-80 127q165 162 406 162q84 0 153.5 -19t125 -59t87 -108.5t31.5 -159.5v-668zM758 217v168q-40 54 -108 83.5t-146 29.5q-100 0 -164 -55 t-64 -142t64 -142t164 -55q78 0 146 29.5t108 83.5z" />
<glyph unicode="&#xe6;" horiz-adv-x="1808" d="M1726 434h-735q11 -131 93.5 -217t215.5 -86q76 0 149.5 30.5t123.5 86.5l86 -125q-72 -71 -169.5 -109.5t-197.5 -38.5q-273 0 -393 220q-57 -99 -167 -159.5t-243 -60.5q-109 0 -197.5 35.5t-145 111.5t-56.5 181q0 153 104.5 238.5t258.5 85.5q227 0 354 -127v159 q0 91 -72.5 144t-189.5 53q-186 0 -326 -131l-80 127q168 162 422 162q134 0 228.5 -51.5t125.5 -151.5q128 203 365 203q136 0 238.5 -71t155 -191.5t52.5 -272.5v-45zM989 567h557q-2 52 -18.5 102t-48.5 94.5t-86.5 71.5t-124.5 27q-65 0 -118.5 -27t-86.5 -70.5t-52 -94 t-22 -103.5zM807 365v18q-47 55 -121.5 85t-159.5 30q-111 0 -180.5 -49.5t-69.5 -135.5t69 -134t181 -48q115 0 198 73t83 161z" />
<glyph unicode="&#xe7;" horiz-adv-x="1015" d="M598 139q152 0 240 123l123 -112q-120 -160 -328 -173l-35 -88q33 23 76 23q59 0 97 -37.5t38 -97.5q0 -78 -62 -125t-155 -47q-64 0 -121 18t-90 45l41 86q73 -59 166 -59q51 0 86 21.5t35 62.5q0 28 -19 44.5t-55 16.5q-45 0 -72 -30l-78 43l47 124q-200 20 -323 164.5 t-123 354.5q0 225 141 371.5t363 146.5q240 0 371 -174l-123 -113q-86 123 -240 123q-144 0 -231.5 -99t-87.5 -255t87.5 -256.5t231.5 -100.5z" />
<glyph unicode="&#xe8;" horiz-adv-x="1146" d="M647 1139h-135l-342 295h182zM86 496q0 142 63 260.5t177 188t256 69.5q218 0 349.5 -151.5t131.5 -383.5v-45h-782q11 -131 101 -219t234 -88q80 0 159.5 30.5t133.5 86.5l86 -121q-151 -148 -397 -148q-223 0 -367.5 145t-144.5 376zM582 862q-71 0 -129 -26.5 t-94 -70.5t-56 -94.5t-24 -103.5h604q-2 52 -20 102t-53 94.5t-94 71.5t-134 27z" />
<glyph unicode="&#xe9;" horiz-adv-x="1146" d="M985 1434l-342 -295h-135l295 295h182zM86 496q0 142 63 260.5t177 188t256 69.5q218 0 349.5 -151.5t131.5 -383.5v-45h-782q11 -131 101 -219t234 -88q80 0 159.5 30.5t133.5 86.5l86 -121q-151 -148 -397 -148q-223 0 -367.5 145t-144.5 376zM582 862 q-71 0 -129 -26.5t-94 -70.5t-56 -94.5t-24 -103.5h604q-2 52 -20 102t-53 94.5t-94 71.5t-134 27z" />
<glyph unicode="&#xea;" horiz-adv-x="1146" d="M866 1139h-121l-163 207l-160 -207h-119l193 295h172zM86 496q0 142 63 260.5t177 188t256 69.5q218 0 349.5 -151.5t131.5 -383.5v-45h-782q11 -131 101 -219t234 -88q80 0 159.5 30.5t133.5 86.5l86 -121q-151 -148 -397 -148q-223 0 -367.5 145t-144.5 376zM582 862 q-71 0 -129 -26.5t-94 -70.5t-56 -94.5t-24 -103.5h604q-2 52 -20 102t-53 94.5t-94 71.5t-134 27z" />
<glyph unicode="&#xeb;" horiz-adv-x="1146" d="M369 1157q-44 0 -76.5 32.5t-32.5 76.5t32 75t77 31q44 0 75 -31t31 -75q0 -45 -31 -77t-75 -32zM795 1157q-44 0 -76.5 32.5t-32.5 76.5t32 75t77 31q43 0 75.5 -31t32.5 -75t-32.5 -76.5t-75.5 -32.5zM86 496q0 142 63 260.5t177 188t256 69.5q218 0 349.5 -151.5 t131.5 -383.5v-45h-782q11 -131 101 -219t234 -88q80 0 159.5 30.5t133.5 86.5l86 -121q-151 -148 -397 -148q-223 0 -367.5 145t-144.5 376zM582 862q-71 0 -129 -26.5t-94 -70.5t-56 -94.5t-24 -103.5h604q-2 52 -20 102t-53 94.5t-94 71.5t-134 27z" />
<glyph unicode="&#xec;" horiz-adv-x="477" d="M305 1139h-135l-342 295h182zM332 0h-185v989h185v-989z" />
<glyph unicode="&#xed;" horiz-adv-x="477" d="M641 1434l-342 -295h-135l295 295h182zM332 0h-185v989h185v-989z" />
<glyph unicode="&#xee;" horiz-adv-x="477" d="M522 1139h-121l-163 207l-160 -207h-119l193 295h172zM332 0h-185v989h185v-989z" />
<glyph unicode="&#xef;" horiz-adv-x="477" d="M27 1157q-44 0 -76.5 32.5t-32.5 76.5t32 75t77 31q44 0 75 -31t31 -75q0 -45 -31 -77t-75 -32zM453 1157q-44 0 -76.5 32.5t-32.5 76.5t32 75t77 31q43 0 75.5 -31t32.5 -75t-32.5 -76.5t-75.5 -32.5zM332 0h-185v989h185v-989z" />
<glyph unicode="&#xf0;" horiz-adv-x="1171" d="M883 1286l-168 -74q370 -318 370 -704q0 -234 -135.5 -383.5t-363.5 -149.5q-223 0 -361.5 141t-138.5 357q0 214 127 355t322 141q199 0 323 -183q-95 181 -323 347l-297 -132l-39 97l235 102q-61 41 -147 92l102 152q119 -71 236 -158l217 94zM586 139q143 0 225 96.5 t82 237.5q0 139 -82 236.5t-225 97.5q-142 0 -224.5 -97.5t-82.5 -236.5q0 -140 82.5 -237t224.5 -97z" />
<glyph unicode="&#xf1;" horiz-adv-x="1144" d="M539 1235q-17 25 -27.5 38t-28.5 24.5t-37 11.5q-41 0 -66.5 -40.5t-25.5 -121.5h-104q0 126 53.5 200t151.5 74q28 0 51.5 -8t43 -26t30 -29.5t28.5 -36.5q21 -28 29.5 -38.5t27 -23t37.5 -12.5q41 0 66 40.5t25 121.5h106q0 -126 -53.5 -200t-151.5 -74q-29 0 -52.5 8 t-43.5 26t-30.5 29.5t-28.5 36.5zM999 0h-184v633q0 117 -54.5 167t-156.5 50q-82 0 -155.5 -41.5t-116.5 -101.5v-707h-185v989h185v-139q56 67 149.5 115.5t200.5 48.5q156 0 236.5 -81.5t80.5 -238.5v-694z" />
<glyph unicode="&#xf2;" horiz-adv-x="1171" d="M651 1139h-135l-342 295h182zM586 -25q-149 0 -264.5 70.5t-175.5 188.5t-60 262q0 143 60 260t175.5 187.5t264.5 70.5q150 0 265 -70.5t174.5 -187.5t59.5 -260q0 -144 -59.5 -262t-174.5 -188.5t-265 -70.5zM586 139q143 0 225 104t82 253q0 95 -34.5 174 t-105.5 129.5t-167 50.5q-95 0 -166 -50t-106 -129.5t-35 -174.5q0 -96 35 -176t106 -130.5t166 -50.5z" />
<glyph unicode="&#xf3;" horiz-adv-x="1171" d="M989 1434l-342 -295h-135l295 295h182zM586 -25q-149 0 -264.5 70.5t-175.5 188.5t-60 262q0 143 60 260t175.5 187.5t264.5 70.5q150 0 265 -70.5t174.5 -187.5t59.5 -260q0 -144 -59.5 -262t-174.5 -188.5t-265 -70.5zM586 139q143 0 225 104t82 253q0 95 -34.5 174 t-105.5 129.5t-167 50.5q-95 0 -166 -50t-106 -129.5t-35 -174.5q0 -96 35 -176t106 -130.5t166 -50.5z" />
<glyph unicode="&#xf4;" horiz-adv-x="1171" d="M870 1139h-120l-164 207l-160 -207h-119l193 295h172zM586 -25q-149 0 -264.5 70.5t-175.5 188.5t-60 262q0 143 60 260t175.5 187.5t264.5 70.5q150 0 265 -70.5t174.5 -187.5t59.5 -260q0 -144 -59.5 -262t-174.5 -188.5t-265 -70.5zM586 139q143 0 225 104t82 253 q0 95 -34.5 174t-105.5 129.5t-167 50.5q-95 0 -166 -50t-106 -129.5t-35 -174.5q0 -96 35 -176t106 -130.5t166 -50.5z" />
<glyph unicode="&#xf5;" horiz-adv-x="1171" d="M551 1235q-18 26 -27.5 38t-27.5 24t-37 12q-41 0 -66.5 -40.5t-25.5 -121.5h-105q0 126 53.5 200t151.5 74q28 0 51.5 -8t43.5 -25.5t30.5 -30t28.5 -36.5q21 -28 29.5 -38.5t27 -23t37.5 -12.5q41 0 65.5 40.5t24.5 121.5h106q0 -126 -53 -200t-151 -74q-29 0 -53 8 t-44 25.5t-30.5 30t-28.5 36.5zM586 -25q-149 0 -264.5 70.5t-175.5 188.5t-60 262q0 143 60 260t175.5 187.5t264.5 70.5q150 0 265 -70.5t174.5 -187.5t59.5 -260q0 -144 -59.5 -262t-174.5 -188.5t-265 -70.5zM586 139q143 0 225 104t82 253q0 95 -34.5 174t-105.5 129.5 t-167 50.5q-95 0 -166 -50t-106 -129.5t-35 -174.5q0 -96 35 -176t106 -130.5t166 -50.5z" />
<glyph unicode="&#xf6;" horiz-adv-x="1171" d="M373 1157q-44 0 -76.5 32.5t-32.5 76.5t32 75t77 31q44 0 75 -31t31 -75q0 -45 -31 -77t-75 -32zM799 1157q-44 0 -76.5 32.5t-32.5 76.5t32 75t77 31q43 0 75.5 -31t32.5 -75t-32.5 -76.5t-75.5 -32.5zM586 -25q-149 0 -264.5 70.5t-175.5 188.5t-60 262q0 143 60 260 t175.5 187.5t264.5 70.5q150 0 265 -70.5t174.5 -187.5t59.5 -260q0 -144 -59.5 -262t-174.5 -188.5t-265 -70.5zM586 139q143 0 225 104t82 253q0 95 -34.5 174t-105.5 129.5t-167 50.5q-95 0 -166 -50t-106 -129.5t-35 -174.5q0 -96 35 -176t106 -130.5t166 -50.5z" />
<glyph unicode="&#xf7;" horiz-adv-x="1046" d="M522 967q-41 0 -71.5 31.5t-30.5 72.5q0 43 30 73t72 30q43 0 74 -30t31 -73q0 -41 -31.5 -72.5t-73.5 -31.5zM987 629h-928v123h928v-123zM522 201q-41 0 -71.5 29.5t-30.5 70.5q0 43 30.5 74t71.5 31q43 0 74 -31t31 -74q0 -41 -31 -70.5t-74 -29.5z" />
<glyph unicode="&#xf8;" horiz-adv-x="1171" d="M1036 1036l-108 -151q75 -71 116 -171.5t41 -217.5q0 -144 -59.5 -262t-174.5 -188.5t-265 -70.5q-149 0 -264 70l-103 -143l-74 53l105 143q-78 72 -121 176t-43 222q0 143 60 260t175.5 187.5t264.5 70.5q152 0 272 -74l107 147zM279 496q0 -150 79 -248l398 551 q-73 51 -170 51q-95 0 -166 -50t-106 -129.5t-35 -174.5zM586 139q143 0 225 104t82 253q0 144 -74 239l-395 -549q68 -47 162 -47z" />
<glyph unicode="&#xf9;" horiz-adv-x="1144" d="M639 1139h-135l-342 295h182zM999 0h-184v135q-64 -69 -155 -114.5t-197 -45.5q-316 0 -316 316v698h185v-637q0 -117 53.5 -165t155.5 -48q82 0 156 40.5t118 99.5v710h184v-989z" />
<glyph unicode="&#xfa;" horiz-adv-x="1144" d="M975 1434l-342 -295h-135l295 295h182zM999 0h-184v135q-64 -69 -155 -114.5t-197 -45.5q-316 0 -316 316v698h185v-637q0 -117 53.5 -165t155.5 -48q82 0 156 40.5t118 99.5v710h184v-989z" />
<glyph unicode="&#xfb;" horiz-adv-x="1144" d="M856 1139h-121l-164 207l-159 -207h-119l192 295h172zM999 0h-184v135q-64 -69 -155 -114.5t-197 -45.5q-316 0 -316 316v698h185v-637q0 -117 53.5 -165t155.5 -48q82 0 156 40.5t118 99.5v710h184v-989z" />
<glyph unicode="&#xfc;" horiz-adv-x="1144" d="M360 1157q-44 0 -76 32.5t-32 76.5t32 75t76 31t75.5 -31t31.5 -75t-31.5 -76.5t-75.5 -32.5zM786 1157q-44 0 -76 32.5t-32 76.5t32 75t76 31q43 0 76 -31t33 -75t-33 -76.5t-76 -32.5zM999 0h-184v135q-64 -69 -155 -114.5t-197 -45.5q-316 0 -316 316v698h185v-637 q0 -117 53.5 -165t155.5 -48q82 0 156 40.5t118 99.5v710h184v-989z" />
<glyph unicode="&#xfd;" horiz-adv-x="1017" d="M911 1434l-342 -295h-135l295 295h182zM98 -387l29 166q39 -17 82 -17q53 0 86.5 21.5t56.5 75.5l58 131l-408 999h197l309 -776l309 776h199l-488 -1177q-45 -112 -123.5 -161.5t-191.5 -51.5q-64 0 -115 14z" />
<glyph unicode="&#xfe;" horiz-adv-x="1181" d="M332 143v-520h-185v1743h185v-518q56 76 141 121t182 45q197 0 319 -139.5t122 -378.5q0 -240 -122.5 -380.5t-318.5 -140.5q-97 0 -180 43t-143 125zM903 496q0 156 -80.5 255t-216.5 99q-83 0 -159.5 -41.5t-114.5 -103.5v-420q38 -61 115 -103.5t159 -42.5 q136 0 216.5 99.5t80.5 257.5z" />
<glyph unicode="&#xff;" horiz-adv-x="1017" d="M295 1157q-44 0 -76.5 32.5t-32.5 76.5t32 75t77 31q44 0 75 -31t31 -75q0 -45 -31 -77t-75 -32zM721 1157q-44 0 -76.5 32.5t-32.5 76.5t32 75t77 31q43 0 75.5 -31t32.5 -75t-32.5 -76.5t-75.5 -32.5zM98 -387l29 166q39 -17 82 -17q53 0 86.5 21.5t56.5 75.5l58 131 l-408 999h197l309 -776l309 776h199l-488 -1177q-45 -112 -123.5 -161.5t-191.5 -51.5q-64 0 -115 14z" />
<glyph unicode="&#x152;" horiz-adv-x="2250" d="M2146 0h-915v221q-72 -119 -199 -182.5t-268 -63.5q-195 0 -348.5 91.5t-237.5 252.5t-84 363t84 362.5t237 251t349 90.5q141 0 268 -63t199 -180v223h915v-180h-710v-400h696v-180h-696v-426h710v-180zM1231 461v442q-57 148 -173.5 224.5t-269.5 76.5 q-147 0 -257.5 -68t-168 -185.5t-57.5 -268.5q0 -230 131.5 -377t351.5 -147q152 0 268.5 78t174.5 225z" />
<glyph unicode="&#x153;" horiz-adv-x="1951" d="M1868 434h-781q11 -132 100.5 -219.5t233.5 -87.5q81 0 160 30.5t135 86.5l86 -121q-154 -148 -397 -148q-70 0 -131.5 17.5t-105 43.5t-80.5 63t-59.5 70.5t-41.5 70.5q-135 -265 -401 -265q-149 0 -264.5 70.5t-175.5 188.5t-60 262q0 143 60 260t175.5 187.5 t264.5 70.5q68 0 128 -18.5t101.5 -45.5t77.5 -65t57 -70t39 -67q22 45 53.5 86.5t79.5 84.5t117.5 69t149.5 26q218 0 348.5 -151.5t130.5 -383.5v-45zM1085 567h605q-2 41 -13.5 81t-36 79t-58.5 69t-85 48t-111 18q-71 0 -128.5 -27t-93.5 -70.5t-56 -94t-23 -103.5z M586 850q-139 0 -223 -101.5t-84 -252.5q0 -152 84 -255.5t223 -103.5q141 0 224 103t83 256q0 151 -83 252.5t-224 101.5z" />
<glyph unicode="&#x178;" horiz-adv-x="1294" d="M434 1499q-44 0 -76 32.5t-32 76.5t32 75t76 31t75.5 -31t31.5 -75t-31.5 -76.5t-75.5 -32.5zM860 1499q-44 0 -76 32.5t-32 76.5t32 75t76 31q43 0 76 -31t33 -75t-33 -76.5t-76 -32.5zM750 0h-205v571l-535 795h236l401 -610l397 610h238l-532 -795v-571z" />
<glyph unicode="&#x2c6;" horiz-adv-x="563" d="M563 1139h-121l-163 207l-160 -207h-119l193 295h172z" />
<glyph unicode="&#x2dc;" horiz-adv-x="649" d="M289 1235q-18 26 -27.5 38t-27.5 24t-37 12q-41 0 -67 -40.5t-26 -121.5h-104q0 126 53.5 200t151.5 74q28 0 51.5 -8t43 -26t30 -29.5t28.5 -36.5q20 -26 29.5 -38t28 -24t37.5 -12q41 0 65.5 40.5t24.5 121.5h106q0 -126 -53.5 -200t-151.5 -74q-29 0 -52.5 8t-43.5 26 t-30.5 29.5t-28.5 36.5z" />
<glyph unicode="&#x2000;" horiz-adv-x="930" />
<glyph unicode="&#x2001;" horiz-adv-x="1860" />
<glyph unicode="&#x2002;" horiz-adv-x="930" />
<glyph unicode="&#x2003;" horiz-adv-x="1860" />
<glyph unicode="&#x2004;" horiz-adv-x="620" />
<glyph unicode="&#x2005;" horiz-adv-x="465" />
<glyph unicode="&#x2006;" horiz-adv-x="310" />
<glyph unicode="&#x2007;" horiz-adv-x="310" />
<glyph unicode="&#x2008;" horiz-adv-x="232" />
<glyph unicode="&#x2009;" horiz-adv-x="372" />
<glyph unicode="&#x200a;" horiz-adv-x="103" />
<glyph unicode="&#x2010;" horiz-adv-x="614" d="M553 416h-492v159h492v-159z" />
<glyph unicode="&#x2011;" horiz-adv-x="614" d="M553 416h-492v159h492v-159z" />
<glyph unicode="&#x2012;" horiz-adv-x="614" d="M553 416h-492v159h492v-159z" />
<glyph unicode="&#x2013;" horiz-adv-x="1214" d="M1153 416h-1092v159h1092v-159z" />
<glyph unicode="&#x2014;" horiz-adv-x="1705" d="M1645 416h-1584v159h1584v-159z" />
<glyph unicode="&#x2018;" horiz-adv-x="485" d="M270 1386l86 -69q-50 -31 -90 -86t-49 -107q8 4 31 4q48 0 80 -32.5t32 -83.5t-36.5 -88t-87.5 -37q-60 0 -102 46.5t-42 125.5q0 96 49 182.5t129 144.5z" />
<glyph unicode="&#x2019;" horiz-adv-x="485" d="M203 887l-86 69q50 31 91 87t48 106q-12 -6 -31 -6q-47 0 -78.5 33t-31.5 84q0 53 36.5 89.5t88.5 36.5q60 0 101.5 -45.5t41.5 -123.5q0 -98 -49.5 -186t-130.5 -144z" />
<glyph unicode="&#x201a;" horiz-adv-x="487" d="M203 -266l-86 71q51 31 91.5 86t47.5 105q-1 0 -13 -2t-18 -2q-47 0 -78.5 33t-31.5 84q0 52 36 88t89 36q60 0 101.5 -45.5t41.5 -124.5q0 -97 -49.5 -184t-130.5 -145z" />
<glyph unicode="&#x201c;" horiz-adv-x="837" d="M281 1386l88 -69q-51 -32 -93 -87t-49 -106q8 4 33 4q46 0 77.5 -33t31.5 -83q0 -52 -36 -88.5t-89 -36.5q-60 0 -101 46.5t-41 125.5q0 97 49 183t130 144zM633 1386l88 -69q-51 -32 -91.5 -87t-47.5 -106q8 4 30 4q46 0 78.5 -33t32.5 -83q0 -51 -36.5 -88t-88.5 -37 q-59 0 -100 46.5t-41 125.5q0 97 48.5 183t127.5 144z" />
<glyph unicode="&#x201d;" horiz-adv-x="837" d="M203 887l-86 69q50 31 91 87t48 106q-12 -6 -31 -6q-47 0 -78.5 33t-31.5 84q0 53 36.5 89.5t88.5 36.5q60 0 101.5 -45.5t41.5 -123.5q0 -98 -49.5 -186t-130.5 -144zM557 887l-86 69q50 31 90 86.5t49 106.5q-12 -6 -30 -6q-48 0 -80.5 33t-32.5 84q0 52 37 89t88 37 q60 0 101.5 -45.5t41.5 -123.5q0 -98 -49.5 -186t-128.5 -144z" />
<glyph unicode="&#x201e;" horiz-adv-x="839" d="M203 -266l-86 71q51 31 91.5 86t47.5 105q-1 0 -13 -2t-18 -2q-47 0 -78.5 33t-31.5 84q0 52 36 88t89 36q60 0 101.5 -45.5t41.5 -124.5q0 -97 -49.5 -184t-130.5 -145zM557 -266l-86 71q50 31 90 85.5t49 105.5q-1 0 -12.5 -2t-17.5 -2q-48 0 -80.5 33t-32.5 84 q0 52 37 88t88 36q60 0 101.5 -45.5t41.5 -124.5q0 -97 -49 -184t-129 -145z" />
<glyph unicode="&#x2022;" horiz-adv-x="733" d="M369 270q-94 0 -161 67t-67 159q0 94 67 160.5t161 66.5t160.5 -66.5t66.5 -160.5q0 -92 -67 -159t-160 -67z" />
<glyph unicode="&#x2026;" horiz-adv-x="1458" d="M242 -20q-52 0 -89.5 37.5t-37.5 88.5q0 52 37.5 89.5t89.5 37.5t89.5 -37.5t37.5 -89.5q0 -51 -37.5 -88.5t-89.5 -37.5zM727 -20q-52 0 -89.5 37.5t-37.5 88.5q0 52 37 89.5t90 37.5t91 -37.5t38 -89.5q0 -51 -38.5 -88.5t-90.5 -37.5zM1214 -20q-52 0 -89.5 37.5 t-37.5 88.5q0 52 37.5 89.5t89.5 37.5t89.5 -37.5t37.5 -89.5q0 -51 -37.5 -88.5t-89.5 -37.5z" />
<glyph unicode="&#x202f;" horiz-adv-x="372" />
<glyph unicode="&#x2039;" horiz-adv-x="628" d="M567 129h-178l-328 369l328 362h178l-327 -362z" />
<glyph unicode="&#x203a;" horiz-adv-x="628" d="M567 498l-327 -369h-179l328 369l-328 362h179z" />
<glyph unicode="&#x205f;" horiz-adv-x="465" />
<glyph unicode="&#x20ac;" horiz-adv-x="1431" d="M848 158q111 0 208 54.5t152 143.5l174 -92q-197 -289 -534 -289q-248 0 -434.5 137t-249.5 365h-107v123h86q-6 40 -6 82q0 46 6 86h-86v123h109q63 227 249 362.5t433 135.5q343 0 534 -289l-174 -92q-55 89 -152 143.5t-208 54.5q-160 0 -283.5 -84.5t-177.5 -230.5 h586v-123h-619q-6 -40 -6 -86q0 -42 6 -82h619v-123h-588q54 -147 177.5 -233t285.5 -86z" />
<glyph unicode="&#x2122;" horiz-adv-x="929" d="M346 1313h-127v-398h-57v398h-127v53h311v-53zM858 915h-57v373l-154 -373h-16l-154 373v-373h-57v451h88l131 -328l131 328h88v-451z" />
<glyph unicode="&#x25fc;" horiz-adv-x="993" d="M0 993h993v-993h-993v993z" />
</font>
</defs>
</svg>
